<?xml version="1.0" standalone="no"?>
<!DOCTYPE svg PUBLIC "-//W3C//DTD SVG 1.1//EN" "http://www.w3.org/Graphics/SVG/1.1/DTD/svg11.dtd" >
<svg xmlns="http://www.w3.org/2000/svg" xmlns:xlink="http://www.w3.org/1999/xlink" version="1.1">
<metadata>
Created by FontForge 20161116 at Sat Jan 18 01:40:36 2014
 By Jimmy Wärting
Copyright \(c\) 2010 by Ryoichi Tsunekawa. All rights reserved.
</metadata>
<defs>
<font id="BebasNeueBook" horiz-adv-x="376" >
  <font-face 
    font-family="Bebas Neue Book"
    font-weight="400"
    font-stretch="normal"
    units-per-em="1000"
    panose-1="0 0 5 0 0 0 0 0 0 0"
    ascent="750"
    descent="-250"
    x-height="700"
    cap-height="700"
    bbox="-45 -179 814 880"
    underline-thickness="50"
    underline-position="-110"
    stemh="42"
    stemv="47"
    unicode-range="U+0020-F6C3"
  />
<missing-glyph horiz-adv-x="548" 
d="M50 0v700h448v-700h-448zM132 630l119 -270l-127 -291h34l114 262l115 -262h38l-127 291l118 270h-33l-107 -242l-107 242h-37z" />
    <glyph glyph-name=".notdef" horiz-adv-x="548" 
d="M50 0v700h448v-700h-448zM132 630l119 -270l-127 -291h34l114 262l115 -262h38l-127 291l118 270h-33l-107 -242l-107 242h-37z" />
    <glyph glyph-name="NULL" horiz-adv-x="0" 
 />
    <glyph glyph-name="CR" horiz-adv-x="155" 
 />
    <glyph glyph-name="space" unicode=" " horiz-adv-x="155" 
 />
    <glyph glyph-name="Acircumflex" unicode="&#xc2;" horiz-adv-x="436" 
d="M216 800l-61 -63h-43l84 90h40l85 -90h-44zM325 155h-218l-35 -155h-42l153 701h67l156 -701h-46zM215 648l-101 -453h204z" />
    <glyph glyph-name="Adieresis" unicode="&#xc4;" horiz-adv-x="436" 
d="M147 821h41v-84h-41v84zM244 821h41v-84h-41v84zM325 155h-218l-35 -155h-42l153 701h67l156 -701h-46zM215 648l-101 -453h204z" />
    <glyph glyph-name="Agrave" unicode="&#xc0;" horiz-adv-x="436" 
d="M135 832h50l71 -95h-36zM325 155h-218l-35 -155h-42l153 701h67l156 -701h-46zM215 648l-101 -453h204z" />
    <glyph glyph-name="Amacron" unicode="&#x100;" horiz-adv-x="436" 
d="M119 793h195v-33h-195v33zM325 155h-218l-35 -155h-42l153 701h67l156 -701h-46zM215 648l-101 -453h204z" />
    <glyph glyph-name="Aogonek" unicode="&#x104;" horiz-adv-x="436" 
d="M406 0h-9c-30 -24 -51 -56 -49 -81c1 -22 20 -29 40 -29c18 0 32 5 44 13v-30c-17 -9 -35 -13 -56 -13c-36 1 -63 16 -64 51c-1 30 19 63 48 87l-35 157h-218l-35 -155h-42l153 701h67zM215 648l-101 -453h204z" />
    <glyph glyph-name="Aring" unicode="&#xc5;" horiz-adv-x="436" 
d="M216 872c37 0 67 -29 67 -66c0 -38 -30 -67 -67 -67c-38 0 -67 29 -67 67c0 37 29 66 67 66zM216 847c-24 0 -43 -17 -43 -41c0 -25 19 -42 43 -42c23 0 43 17 43 42c0 24 -20 41 -43 41zM325 155h-218l-35 -155h-42l153 701h67l156 -701h-46zM215 648l-101 -453h204z
" />
    <glyph glyph-name="Atilde" unicode="&#xc3;" horiz-adv-x="436" 
d="M170 814c38 0 63 -35 93 -34c17 1 28 13 37 31l25 -17c-13 -29 -32 -47 -58 -47c-37 -2 -61 34 -93 33c-19 0 -32 -11 -42 -30l-25 16c14 31 35 47 63 48zM325 155h-218l-35 -155h-42l153 701h67l156 -701h-46zM215 648l-101 -453h204z" />
    <glyph glyph-name="AE" unicode="&#xc6;" horiz-adv-x="589" 
d="M349 376h169v-42h-169v-292h204v-42h-250v157h-175l-57 -157h-44l249 700h277v-42h-204v-282zM303 643l-163 -445h163v445z" />
    <glyph glyph-name="AEacute" unicode="&#x1fc;" horiz-adv-x="589" 
d="M364 840h48l-84 -95h-35zM349 376h169v-42h-169v-292h204v-42h-250v157h-175l-57 -157h-44l249 700h277v-42h-204v-282zM303 643l-163 -445h163v445z" />
    <glyph glyph-name="B" unicode="B" horiz-adv-x="378" 
d="M40 700h147c105 0 143 -52 143 -149v-40c0 -76 -21 -123 -92 -138c76 -15 105 -71 105 -150v-61c0 -101 -46 -162 -153 -162h-150v700zM86 391h78c82 0 120 22 120 111v45c0 73 -23 111 -98 111h-100v-267zM86 42h104c77 0 107 43 107 121v63c0 91 -41 123 -124 123h-87
v-307z" />
    <glyph glyph-name="C" unicode="C" horiz-adv-x="374" 
d="M188 706c107 0 151 -76 151 -177v-58h-44v61c0 75 -29 132 -106 132s-106 -57 -106 -132v-364c0 -75 29 -131 106 -131s106 56 106 131v83h44v-80c0 -101 -44 -177 -151 -177s-151 76 -151 177v358c0 101 44 177 151 177z" />
    <glyph glyph-name="Cacute" unicode="&#x106;" horiz-adv-x="374" 
d="M225 842h48l-84 -95h-35zM188 706c107 0 151 -76 151 -177v-58h-44v61c0 75 -29 132 -106 132s-106 -57 -106 -132v-364c0 -75 29 -131 106 -131s106 56 106 131v83h44v-80c0 -101 -44 -177 -151 -177s-151 76 -151 177v358c0 101 44 177 151 177z" />
    <glyph glyph-name="Ccaron" unicode="&#x10c;" horiz-adv-x="374" 
d="M89 834h42l62 -64l61 64h43l-84 -90h-40zM188 706c107 0 151 -76 151 -177v-58h-44v61c0 75 -29 132 -106 132s-106 -57 -106 -132v-364c0 -75 29 -131 106 -131s106 56 106 131v83h44v-80c0 -101 -44 -177 -151 -177s-151 76 -151 177v358c0 101 44 177 151 177z" />
    <glyph glyph-name="Ccedilla" unicode="&#xc7;" horiz-adv-x="374" 
d="M188 706c107 0 151 -76 151 -177v-58h-44v61c0 75 -29 132 -106 132s-106 -57 -106 -132v-364c0 -75 29 -131 106 -131s106 56 106 131v83h44v-80c0 -97 -41 -172 -140 -177v-28c47 -1 75 -22 75 -56c0 -41 -33 -65 -89 -64c-55 0 -88 23 -88 63v6h32v-5
c0 -22 21 -37 56 -39c36 0 57 15 57 40c0 23 -22 37 -60 37h-7v47c-98 5 -138 79 -138 176v358c0 101 44 177 151 177z" />
    <glyph glyph-name="Ccircumflex" unicode="&#x108;" horiz-adv-x="374" 
d="M191 807l-61 -64h-43l84 90h40l85 -90h-44zM188 706c107 0 151 -76 151 -177v-58h-44v61c0 75 -29 132 -106 132s-106 -57 -106 -132v-364c0 -75 29 -131 106 -131s106 56 106 131v83h44v-80c0 -101 -44 -177 -151 -177s-151 76 -151 177v358c0 101 44 177 151 177z" />
    <glyph glyph-name="Cdotaccent" unicode="&#x10a;" horiz-adv-x="374" 
d="M167 824h41v-84h-41v84zM188 706c107 0 151 -76 151 -177v-58h-44v61c0 75 -29 132 -106 132s-106 -57 -106 -132v-364c0 -75 29 -131 106 -131s106 56 106 131v83h44v-80c0 -101 -44 -177 -151 -177s-151 76 -151 177v358c0 101 44 177 151 177z" />
    <glyph glyph-name="D" unicode="D" horiz-adv-x="385" 
d="M40 700h154c108 0 155 -71 155 -174v-352c0 -103 -47 -174 -155 -174h-154v700zM86 42h107c78 0 110 53 110 130v356c0 77 -33 130 -110 130h-107v-616z" />
    <glyph glyph-name="Eth" unicode="&#xd0;" horiz-adv-x="385" 
d="M40 700h154c108 0 155 -71 155 -174v-352c0 -103 -47 -174 -155 -174h-154v331h-46v38h46v331zM175 369v-38h-89v-289h107c78 0 110 53 110 130v356c0 77 -33 130 -110 130h-107v-289h89z" />
    <glyph glyph-name="Dcaron" unicode="&#x10e;" horiz-adv-x="385" 
d="M78 830h43l61 -64l61 64h44l-85 -90h-40zM40 700h154c108 0 155 -71 155 -174v-352c0 -103 -47 -174 -155 -174h-154v700zM86 42h107c78 0 110 53 110 130v356c0 77 -33 130 -110 130h-107v-616z" />
    <glyph glyph-name="Dcroat" unicode="&#x110;" horiz-adv-x="385" 
d="M40 700h154c108 0 155 -71 155 -174v-352c0 -103 -47 -174 -155 -174h-154v330h-42v38h42v332zM176 368v-38h-90v-288h107c78 0 110 53 110 130v356c0 77 -33 130 -110 130h-107v-290h90z" />
    <glyph glyph-name="E" unicode="E" horiz-adv-x="351" 
d="M86 376h191v-42h-191v-292h230v-42h-276v700h276v-42h-230v-282z" />
    <glyph glyph-name="Eacute" unicode="&#xc9;" horiz-adv-x="351" 
d="M212 835h48l-84 -95h-35zM86 376h191v-42h-191v-292h230v-42h-276v700h276v-42h-230v-282z" />
    <glyph glyph-name="Ebreve" unicode="&#x114;" horiz-adv-x="351" 
d="M244 832h30c-2 -55 -42 -88 -98 -88c-55 0 -95 32 -96 88h30c1 -41 31 -57 66 -57c36 0 66 16 68 57zM86 376h191v-42h-191v-292h230v-42h-276v700h276v-42h-230v-282z" />
    <glyph glyph-name="Ecaron" unicode="&#x11a;" horiz-adv-x="351" 
d="M76 831h43l61 -64l61 64h43l-84 -90h-40zM86 376h191v-42h-191v-292h230v-42h-276v700h276v-42h-230v-282z" />
    <glyph glyph-name="Ecircumflex" unicode="&#xca;" horiz-adv-x="351" 
d="M177 805l-61 -64h-43l84 90h40l85 -90h-44zM86 376h191v-42h-191v-292h230v-42h-276v700h276v-42h-230v-282z" />
    <glyph glyph-name="Edieresis" unicode="&#xcb;" horiz-adv-x="351" 
d="M109 825h40v-85h-40v85zM205 825h41v-85h-41v85zM86 376h191v-42h-191v-292h230v-42h-276v700h276v-42h-230v-282z" />
    <glyph glyph-name="Edotaccent" unicode="&#x116;" horiz-adv-x="351" 
d="M159 827h41v-85h-41v85zM86 376h191v-42h-191v-292h230v-42h-276v700h276v-42h-230v-282z" />
    <glyph glyph-name="Egrave" unicode="&#xc8;" horiz-adv-x="351" 
d="M103 842h50l71 -95h-37zM86 376h191v-42h-191v-292h230v-42h-276v700h276v-42h-230v-282z" />
    <glyph glyph-name="Emacron" unicode="&#x112;" horiz-adv-x="351" 
d="M81 796h188v-34h-188v34zM86 376h191v-42h-191v-292h230v-42h-276v700h276v-42h-230v-282z" />
    <glyph glyph-name="Eogonek" unicode="&#x118;" horiz-adv-x="351" 
d="M86 376h191v-42h-191v-292h230v-42h-22c-25 -20 -47 -55 -46 -80c1 -22 19 -32 39 -32c18 0 32 5 44 13v-30c-17 -9 -36 -13 -57 -13c-36 1 -61 18 -63 53c-1 32 23 67 53 89h-224v700h276v-42h-230v-282z" />
    <glyph glyph-name="F" unicode="F" horiz-adv-x="336" 
d="M86 359h181v-42h-181v-317h-46v700h266v-42h-220v-299z" />
    <glyph glyph-name="G" unicode="G" 
d="M188 706c107 0 151 -76 151 -177v-52h-44v55c0 75 -29 132 -106 132s-106 -57 -106 -132v-364c0 -75 29 -131 106 -131s106 56 106 131v151h-93v42h137v-190c0 -101 -44 -177 -151 -177s-151 76 -151 177v358c0 101 44 177 151 177z" />
    <glyph glyph-name="Gbreve" unicode="&#x11e;" 
d="M256 834h30c-1 -55 -42 -88 -97 -88c-56 0 -96 32 -97 88h30c2 -41 31 -57 67 -57c35 0 65 16 67 57zM188 706c107 0 151 -76 151 -177v-52h-44v55c0 75 -29 132 -106 132s-106 -57 -106 -132v-364c0 -75 29 -131 106 -131s106 56 106 131v151h-93v42h137v-190
c0 -101 -44 -177 -151 -177s-151 76 -151 177v358c0 101 44 177 151 177z" />
    <glyph glyph-name="Gcircumflex" unicode="&#x11c;" 
d="M189 811l-61 -64h-43l84 90h40l84 -90h-43zM188 706c107 0 151 -76 151 -177v-52h-44v55c0 75 -29 132 -106 132s-106 -57 -106 -132v-364c0 -75 29 -131 106 -131s106 56 106 131v151h-93v42h137v-190c0 -101 -44 -177 -151 -177s-151 76 -151 177v358
c0 101 44 177 151 177z" />
    <glyph glyph-name="Gdotaccent" unicode="&#x120;" 
d="M174 828h40v-85h-40v85zM188 706c107 0 151 -76 151 -177v-52h-44v55c0 75 -29 132 -106 132s-106 -57 -106 -132v-364c0 -75 29 -131 106 -131s106 56 106 131v151h-93v42h137v-190c0 -101 -44 -177 -151 -177s-151 76 -151 177v358c0 101 44 177 151 177z" />
    <glyph glyph-name="H" unicode="H" horiz-adv-x="391" 
d="M304 329h-218v-329h-46v700h46v-329h218v329h47v-700h-47v329z" />
    <glyph glyph-name="Hbar" unicode="&#x126;" horiz-adv-x="394" 
d="M389 525h-37v-525h-46v329h-218v-329h-46v525h-38v35h38v140h46v-140h218v140h46v-140h37v-35zM306 371v154h-218v-154h218z" />
    <glyph glyph-name="Hcircumflex" unicode="&#x124;" horiz-adv-x="391" 
d="M195 809l-61 -64h-43l84 90h40l85 -90h-44zM304 329h-218v-329h-46v700h46v-329h218v329h47v-700h-47v329z" />
    <glyph glyph-name="I" unicode="I" horiz-adv-x="126" 
d="M40 700h46v-700h-46v700z" />
    <glyph glyph-name="IJ" unicode="&#x132;" horiz-adv-x="379" 
d="M40 700h46v-700h-46v700zM341 700v-528c0 -125 -56 -168 -144 -173c-15 0 -27 0 -42 1v42h37c71 5 103 41 103 127v531h46z" />
    <glyph glyph-name="Iacute" unicode="&#xcd;" horiz-adv-x="126" 
d="M25 741l71 95h48l-84 -95h-35zM40 0v700h46v-700h-46z" />
    <glyph glyph-name="Ibreve" unicode="&#x12c;" horiz-adv-x="126" 
d="M130 828h30c-1 -56 -42 -89 -97 -89c-56 0 -96 33 -97 89h30c2 -41 32 -58 67 -58s65 17 67 58zM40 0v700h46v-700h-46z" />
    <glyph glyph-name="Icircumflex" unicode="&#xce;" horiz-adv-x="126" 
d="M43 830h40l84 -90h-43l-61 64l-61 -64h-43zM40 0v700h46v-700h-46z" />
    <glyph glyph-name="Idieresis" unicode="&#xcf;" horiz-adv-x="126" 
d="M-6 825h41v-84h-41v84zM91 825h41v-84h-41v84zM40 700h46v-700h-46v700z" />
    <glyph glyph-name="Idotaccent" unicode="&#x130;" horiz-adv-x="126" 
d="M43 825h40v-84h-40v84zM40 700h46v-700h-46v700z" />
    <glyph glyph-name="Igrave" unicode="&#xcc;" horiz-adv-x="126" 
d="M60 740l-84 95h49l71 -95h-36zM40 0v700h46v-700h-46z" />
    <glyph glyph-name="Imacron" unicode="&#x12a;" horiz-adv-x="126" 
d="M-21 793h168v-33h-168v33zM40 700h46v-700h-46v700z" />
    <glyph glyph-name="Iogonek" unicode="&#x12e;" horiz-adv-x="126" 
d="M86 0h-6c-27 -22 -45 -55 -44 -80c1 -22 19 -32 39 -32c19 0 33 5 44 13v-30c-17 -9 -35 -13 -56 -13c-35 1 -62 18 -64 53c-1 31 16 64 48 89h-8l1 700h46v-700z" />
    <glyph glyph-name="Itilde" unicode="&#x128;" horiz-adv-x="126" 
d="M148 815l25 -16c-13 -30 -32 -47 -58 -48c-37 -1 -62 34 -94 33c-18 0 -31 -11 -41 -30l-25 17c14 30 35 47 62 47c39 1 64 -34 94 -33c16 0 28 13 37 30zM40 700h46v-700h-46v700z" />
    <glyph glyph-name="J" unicode="J" horiz-adv-x="253" 
d="M29 0v42c14 -1 28 0 41 1c66 5 99 40 99 126v531h46v-528c0 -123 -55 -168 -140 -172c-15 -1 -30 -1 -46 0z" />
    <glyph glyph-name="Jcircumflex" unicode="&#x134;" horiz-adv-x="253" 
d="M185 805l-61 -64h-43l84 90h40l85 -90h-44zM215 700v-528c0 -123 -55 -168 -140 -172c-15 -1 -30 -1 -46 0v42c14 -1 28 0 41 1c66 5 99 40 99 126v531h46z" />
    <glyph glyph-name="K" unicode="K" horiz-adv-x="404" 
d="M327 0l-193 329l-48 -76v-253h-46v700h46v-370l228 370h48l-200 -326l213 -374h-48z" />
    <glyph glyph-name="L" unicode="L" horiz-adv-x="335" 
d="M306 0h-266v700h46v-658h220v-42z" />
    <glyph glyph-name="Lacute" unicode="&#x139;" horiz-adv-x="335" 
d="M118 835h47l-84 -95h-35zM306 0h-266v700h46v-658h220v-42z" />
    <glyph glyph-name="Lcaron" unicode="&#x13d;" horiz-adv-x="335" 
d="M306 0h-266v700h46v-658h220v-42zM211 536l20 76h-16v88h45v-84l-29 -80h-20z" />
    <glyph glyph-name="Ldot" unicode="&#x13f;" horiz-adv-x="335" 
d="M306 0h-266v700h46v-658h220v-42zM185 397h45v-88h-45v88z" />
    <glyph glyph-name="Lslash" unicode="&#x141;" horiz-adv-x="347" 
d="M195 412l-96 -95v-275h220v-42h-266v268l-53 -49v44l53 49v388h46v-339l96 96v-45z" />
    <glyph glyph-name="M" unicode="M" horiz-adv-x="505" 
d="M421 622l-146 -621h-46l-148 619v-620h-41v700h66l147 -619l146 619h66v-700h-44v622z" />
    <glyph glyph-name="N" unicode="N" horiz-adv-x="391" 
d="M82 624v-624h-42v700h60l210 -591v591h42v-700h-51z" />
    <glyph glyph-name="Nacute" unicode="&#x143;" horiz-adv-x="391" 
d="M235 837h47l-84 -95h-35zM82 625v-624h-42v700h60l210 -591v591h42v-700h-51z" />
    <glyph glyph-name="Ncaron" unicode="&#x147;" horiz-adv-x="391" 
d="M93 835h43l61 -63l61 63h43l-84 -90h-40zM82 624v-624h-42v700h60l210 -591v591h42v-700h-51z" />
    <glyph glyph-name="Ntilde" unicode="&#xd1;" horiz-adv-x="391" 
d="M281 819l24 -17c-12 -29 -32 -46 -58 -47c-37 -1 -61 34 -93 33c-18 0 -31 -11 -42 -30l-24 16c13 31 35 47 62 48c38 1 63 -35 93 -33c17 0 29 13 38 30zM82 624v-624h-42v700h60l210 -591v591h42v-700h-51z" />
    <glyph glyph-name="O" unicode="O" horiz-adv-x="381" 
d="M37 171v358c0 102 47 177 153 177c108 0 155 -75 155 -177v-358c0 -102 -47 -177 -155 -177c-106 0 -153 75 -153 177zM83 532v-364c0 -76 30 -132 107 -132c78 0 109 56 109 132v364c0 76 -31 132 -109 132c-77 0 -107 -56 -107 -132z" />
    <glyph glyph-name="Oacute" unicode="&#xd3;" horiz-adv-x="381" 
d="M223 842h48l-84 -95h-35zM190 706c108 0 155 -75 155 -177v-358c0 -102 -47 -177 -155 -177c-106 0 -153 75 -153 177v358c0 102 47 177 153 177zM190 664c-77 0 -107 -56 -107 -132v-364c0 -76 30 -132 107 -132c78 0 109 56 109 132v364c0 76 -31 132 -109 132z" />
    <glyph glyph-name="Obreve" unicode="&#x14e;" horiz-adv-x="381" 
d="M258 834h30c-2 -55 -42 -88 -98 -88c-55 0 -95 32 -96 88h29c2 -41 32 -57 67 -57s65 16 68 57zM190 706c108 0 155 -75 155 -177v-358c0 -102 -47 -177 -155 -177c-106 0 -153 75 -153 177v358c0 102 47 177 153 177zM190 664c-77 0 -107 -56 -107 -132v-364
c0 -76 30 -132 107 -132c78 0 109 56 109 132v364c0 76 -31 132 -109 132z" />
    <glyph glyph-name="Ocircumflex" unicode="&#xd4;" horiz-adv-x="381" 
d="M190 809l-61 -64h-43l84 90h40l84 -90h-43zM190 706c108 0 155 -75 155 -177v-358c0 -102 -47 -177 -155 -177c-106 0 -153 75 -153 177v358c0 102 47 177 153 177zM190 664c-77 0 -107 -56 -107 -132v-364c0 -76 30 -132 107 -132c78 0 109 56 109 132v364
c0 76 -31 132 -109 132z" />
    <glyph glyph-name="Odieresis" unicode="&#xd6;" horiz-adv-x="381" 
d="M121 830h41v-85h-41v85zM218 830h41v-85h-41v85zM190 706c108 0 155 -75 155 -177v-358c0 -102 -47 -177 -155 -177c-106 0 -153 75 -153 177v358c0 102 47 177 153 177zM190 664c-77 0 -107 -56 -107 -132v-364c0 -76 30 -132 107 -132c78 0 109 56 109 132v364
c0 76 -31 132 -109 132z" />
    <glyph glyph-name="Ograve" unicode="&#xd2;" horiz-adv-x="381" 
d="M108 842h50l71 -95h-37zM190 706c108 0 155 -75 155 -177v-358c0 -102 -47 -177 -155 -177c-106 0 -153 75 -153 177v358c0 102 47 177 153 177zM190 664c-77 0 -107 -56 -107 -132v-364c0 -76 30 -132 107 -132c78 0 109 56 109 132v364c0 76 -31 132 -109 132z" />
    <glyph glyph-name="Ohungarumlaut" unicode="&#x150;" horiz-adv-x="381" 
d="M183 842h45l-77 -95h-33zM268 842h45l-78 -95h-32zM190 706c108 0 155 -75 155 -177v-358c0 -102 -47 -177 -155 -177c-106 0 -153 75 -153 177v358c0 102 47 177 153 177zM190 664c-77 0 -107 -56 -107 -132v-364c0 -76 30 -132 107 -132c78 0 109 56 109 132v364
c0 76 -31 132 -109 132z" />
    <glyph glyph-name="Omacron" unicode="&#x14c;" horiz-adv-x="381" 
d="M98 794h187v-34h-187v34zM190 706c108 0 155 -75 155 -177v-358c0 -102 -47 -177 -155 -177c-106 0 -153 75 -153 177v358c0 102 47 177 153 177zM190 664c-77 0 -107 -56 -107 -132v-364c0 -76 30 -132 107 -132c78 0 109 56 109 132v364c0 76 -31 132 -109 132z" />
    <glyph glyph-name="Oslash" unicode="&#xd8;" horiz-adv-x="381" 
d="M339 707l-23 -62c20 -30 29 -70 29 -116v-358c0 -102 -47 -177 -155 -177c-47 0 -83 15 -107 40l-20 -51l-23 8l25 66c-19 30 -28 69 -28 114v358c0 102 47 177 153 177c48 0 83 -15 108 -40l19 49zM83 532v-364c0 -18 2 -35 5 -51l192 501c-17 28 -46 46 -90 46
c-77 0 -107 -56 -107 -132zM299 168v364c0 19 -2 37 -6 54l-192 -503c17 -29 45 -47 89 -47c78 0 109 56 109 132z" />
    <glyph glyph-name="Oslashacute" unicode="&#x1fe;" horiz-adv-x="381" 
d="M159 747l71 95h48l-84 -95h-35zM339 707l-23 -62c20 -30 29 -70 29 -116v-358c0 -102 -47 -177 -155 -177c-47 0 -83 15 -107 40l-20 -51l-23 8l25 66c-19 30 -28 69 -28 114v358c0 102 47 177 153 177c48 0 83 -15 108 -40l19 49zM83 532v-364c0 -18 2 -35 5 -51
l192 501c-17 28 -46 46 -90 46c-77 0 -107 -56 -107 -132zM299 168v364c0 19 -2 37 -6 54l-192 -503c17 -29 45 -47 89 -47c78 0 109 56 109 132z" />
    <glyph glyph-name="Otilde" unicode="&#xd5;" horiz-adv-x="381" 
d="M278 816l25 -16c-12 -29 -32 -47 -58 -48c-37 -1 -61 34 -93 34c-19 0 -32 -11 -42 -31l-25 17c14 30 36 47 63 47c38 1 63 -34 93 -33c17 1 29 13 37 30zM190 706c108 0 155 -75 155 -177v-358c0 -102 -47 -177 -155 -177c-106 0 -153 75 -153 177v358
c0 102 47 177 153 177zM190 664c-77 0 -107 -56 -107 -132v-364c0 -76 30 -132 107 -132c78 0 109 56 109 132v364c0 76 -31 132 -109 132z" />
    <glyph glyph-name="OE" unicode="&#x152;" horiz-adv-x="568" 
d="M327 376h170v-42h-170v-292h205v-42h-350c-105 0 -146 77 -146 174v352c0 97 41 174 146 174h350v-42h-205v-282zM281 658h-98c-74 0 -101 -59 -101 -130v-356c0 -71 27 -130 101 -130h98v616z" />
    <glyph glyph-name="P" unicode="P" horiz-adv-x="366" 
d="M40 700h145c108 0 150 -68 150 -170v-76c0 -111 -51 -166 -162 -166h-87v-288h-46v700zM86 330h87c81 0 116 36 116 121v82c0 76 -26 125 -104 125h-99v-328z" />
    <glyph glyph-name="Thorn" unicode="&#xde;" horiz-adv-x="377" 
d="M86 578h99c108 0 150 -68 150 -170v-76c0 -111 -51 -166 -162 -166h-87v-166h-46v700h46v-122zM86 208h87c81 0 116 36 116 121v81c0 77 -26 125 -104 125h-99v-327z" />
    <glyph glyph-name="Q" unicode="Q" horiz-adv-x="408" 
d="M191 706c107 0 154 -75 154 -177v-358c0 -48 -10 -90 -33 -121c12 -21 30 -28 55 -28h11v-41h-12c-39 0 -66 13 -83 41c-23 -17 -53 -28 -92 -28c-107 0 -154 75 -154 177v358c0 102 47 177 154 177zM191 664c-77 0 -108 -56 -108 -132v-364c0 -76 31 -132 108 -132
s108 56 108 132v364c0 76 -31 132 -108 132z" />
    <glyph glyph-name="R" unicode="R" horiz-adv-x="386" 
d="M40 700h146c107 0 150 -59 150 -158v-61c0 -82 -32 -129 -101 -145c72 -16 101 -67 101 -143v-109c0 -29 2 -61 17 -84h-48c-12 21 -15 46 -15 84v110c0 93 -51 119 -131 119h-73v-313h-46v700zM86 355h74c82 0 130 23 130 117v66c0 75 -29 120 -105 120h-99v-303z" />
    <glyph glyph-name="Racute" unicode="&#x154;" horiz-adv-x="386" 
d="M213 842h48l-84 -95h-35zM40 700h146c107 0 150 -59 150 -158v-61c0 -82 -32 -129 -101 -145c72 -16 101 -67 101 -143v-109c0 -29 2 -61 17 -84h-48c-12 21 -15 46 -15 84v110c0 93 -51 119 -131 119h-73v-313h-46v700zM86 355h74c82 0 130 23 130 117v66
c0 75 -29 120 -105 120h-99v-303z" />
    <glyph glyph-name="Rcaron" unicode="&#x158;" horiz-adv-x="386" 
d="M73 836h43l61 -64l61 64h44l-85 -90h-40zM40 700h146c107 0 150 -59 150 -158v-61c0 -82 -32 -129 -101 -145c72 -16 101 -67 101 -143v-109c0 -29 2 -61 17 -84h-48c-12 21 -15 46 -15 84v110c0 93 -51 119 -131 119h-73v-313h-46v700zM86 355h74c82 0 130 23 130 117
v66c0 75 -29 120 -105 120h-99v-303z" />
    <glyph glyph-name="S" unicode="S" horiz-adv-x="370" 
d="M186 706c106 0 149 -74 149 -175v-15h-44v18c0 74 -28 130 -104 130s-104 -55 -104 -129c0 -170 253 -173 253 -366c0 -101 -44 -175 -151 -175s-151 74 -151 175v36h44v-39c0 -75 29 -129 106 -129s106 54 106 129c0 168 -253 171 -253 366c0 105 46 173 149 174z" />
    <glyph glyph-name="Sacute" unicode="&#x15a;" horiz-adv-x="370" 
d="M225 842h48l-84 -95h-35zM186 706c106 0 149 -74 149 -175v-15h-44v18c0 74 -28 130 -104 130s-104 -55 -104 -129c0 -170 253 -173 253 -366c0 -101 -44 -175 -151 -175s-151 74 -151 175v36h44v-39c0 -75 29 -129 106 -129s106 54 106 129c0 168 -253 171 -253 366
c0 105 46 173 149 174z" />
    <glyph glyph-name="Scaron" unicode="&#x160;" horiz-adv-x="370" 
d="M84 836h42l62 -64l61 64h43l-84 -90h-41zM186 706c106 0 149 -74 149 -175v-15h-44v18c0 74 -28 130 -104 130s-104 -55 -104 -129c0 -170 253 -173 253 -366c0 -101 -44 -175 -151 -175s-151 74 -151 175v36h44v-39c0 -75 29 -129 106 -129s106 54 106 129
c0 168 -253 171 -253 366c0 105 46 173 149 174z" />
    <glyph glyph-name="Scedilla" unicode="&#x15e;" horiz-adv-x="370" 
d="M197 -6v-28c47 -1 75 -22 75 -56c0 -41 -33 -65 -89 -64c-55 0 -88 23 -88 63v6h32v-5c0 -22 21 -37 56 -39c36 0 57 15 57 40c0 23 -22 37 -60 37h-7v47c-99 4 -139 77 -139 174v36h44v-39c0 -75 29 -129 106 -129s106 54 106 129c0 168 -253 171 -253 366
c0 105 46 173 149 174c106 0 149 -74 149 -175v-15h-44v18c0 74 -28 130 -104 130s-104 -55 -104 -129c0 -170 253 -173 253 -366c0 -98 -41 -170 -139 -175z" />
    <glyph glyph-name="Scircumflex" unicode="&#x15c;" horiz-adv-x="370" 
d="M190 809l-61 -64h-43l84 90h40l84 -90h-43zM186 706c106 0 149 -74 149 -175v-15h-44v18c0 74 -28 130 -104 130s-104 -55 -104 -129c0 -170 253 -173 253 -366c0 -101 -44 -175 -151 -175s-151 74 -151 175v36h44v-39c0 -75 29 -129 106 -129s106 54 106 129
c0 168 -253 171 -253 366c0 105 46 173 149 174z" />
    <glyph glyph-name="T" unicode="T" horiz-adv-x="369" 
d="M207 0h-46v658h-143v42h331v-42h-142v-658z" />
    <glyph glyph-name="Tbar" unicode="&#x166;" horiz-adv-x="388" 
d="M217 465h76v-35h-76v-430h-46v430h-76v35h76v193h-143v42h332v-42h-143v-193z" />
    <glyph glyph-name="Tcaron" unicode="&#x164;" horiz-adv-x="388" 
d="M90 831h42l62 -63l61 63h43l-84 -90h-41zM217 0h-46v658h-143v42h332v-42h-143v-658z" />
    <glyph glyph-name="U" unicode="U" 
d="M84 700v-531c0 -75 28 -133 105 -133s105 58 105 133v531h43v-529c0 -100 -42 -177 -149 -177s-150 77 -150 177v529h46z" />
    <glyph glyph-name="Uacute" unicode="&#xda;" 
d="M227 842h48l-84 -95h-35zM337 700v-529c0 -100 -42 -177 -149 -177s-150 77 -150 177v529h46v-531c0 -75 28 -133 105 -133s105 58 105 133v531h43z" />
    <glyph glyph-name="Ubreve" unicode="&#x16c;" 
d="M257 828h29c-1 -56 -41 -89 -97 -89c-55 0 -96 33 -97 89h30c2 -41 32 -58 67 -58s65 17 68 58zM337 700v-529c0 -100 -42 -177 -149 -177s-150 77 -150 177v529h46v-531c0 -75 28 -133 105 -133s105 58 105 133v531h43z" />
    <glyph glyph-name="Ucircumflex" unicode="&#xdb;" 
d="M189 809l-61 -64h-43l84 90h40l85 -90h-44zM337 700v-529c0 -100 -42 -177 -149 -177s-150 77 -150 177v529h46v-531c0 -75 28 -133 105 -133s105 58 105 133v531h43z" />
    <glyph glyph-name="Udieresis" unicode="&#xdc;" 
d="M119 828h41v-85h-41v85zM216 828h41v-85h-41v85zM337 700v-529c0 -100 -42 -177 -149 -177s-150 77 -150 177v529h46v-531c0 -75 28 -133 105 -133s105 58 105 133v531h43z" />
    <glyph glyph-name="Ugrave" unicode="&#xd9;" 
d="M105 836h50l71 -95h-37zM337 700v-529c0 -100 -42 -177 -149 -177s-150 77 -150 177v529h46v-531c0 -75 28 -133 105 -133s105 58 105 133v531h43z" />
    <glyph glyph-name="Uhungarumlaut" unicode="&#x170;" 
d="M180 840h45l-77 -95h-33zM265 840h45l-78 -95h-32zM337 700v-529c0 -100 -42 -177 -149 -177s-150 77 -150 177v529h46v-531c0 -75 28 -133 105 -133s105 58 105 133v531h43z" />
    <glyph glyph-name="Umacron" unicode="&#x16a;" 
d="M100 793h182v-33h-182v33zM337 700v-529c0 -100 -42 -177 -149 -177s-150 77 -150 177v529h46v-531c0 -75 28 -133 105 -133s105 58 105 133v531h43z" />
    <glyph glyph-name="Uogonek" unicode="&#x172;" 
d="M337 700v-529c0 -72 -19 -141 -86 -168c-26 -20 -46 -58 -45 -83c2 -22 19 -32 40 -32c18 0 32 5 44 13v-28c-18 -9 -35 -13 -56 -13c-36 1 -63 16 -64 51c-1 30 20 62 48 85c-9 -1 -19 -2 -30 -2c-107 0 -150 77 -150 177v529h46v-531c0 -75 28 -133 105 -133
s105 58 105 133v531h43z" />
    <glyph glyph-name="Uring" unicode="&#x16e;" 
d="M192 868c38 0 68 -28 68 -66c0 -37 -30 -66 -68 -66c-37 0 -67 29 -67 66c0 38 30 66 67 66zM192 844c-24 0 -42 -17 -42 -42c0 -24 18 -42 42 -42s43 18 43 42c0 25 -19 42 -43 42zM337 700v-529c0 -100 -42 -177 -149 -177s-150 77 -150 177v529h46v-531
c0 -75 28 -133 105 -133s105 58 105 133v531h43z" />
    <glyph glyph-name="Utilde" unicode="&#x168;" 
d="M273 816l25 -16c-12 -29 -32 -47 -58 -48c-37 -1 -61 34 -93 34c-19 0 -32 -11 -42 -31l-25 17c14 30 36 47 63 47c38 1 63 -34 93 -33c17 1 29 13 37 30zM337 700v-529c0 -100 -42 -177 -149 -177s-150 77 -150 177v529h46v-531c0 -75 28 -133 105 -133s105 58 105 133
v531h43z" />
    <glyph glyph-name="V" unicode="V" horiz-adv-x="434" 
d="M30 700h47l142 -647l142 647h43l-152 -700h-68z" />
    <glyph glyph-name="W" unicode="W" horiz-adv-x="603" 
d="M306 573l-98 -573h-64l-113 700h45l105 -638l102 635h49l98 -633l101 636h41l-112 -700h-60z" />
    <glyph glyph-name="Wacute" unicode="&#x1e82;" horiz-adv-x="603" 
d="M335 836h47l-84 -95h-35zM306 573l-98 -573h-64l-113 700h45l105 -638l102 635h49l98 -633l101 636h41l-112 -700h-60z" />
    <glyph glyph-name="Wcircumflex" unicode="&#x174;" horiz-adv-x="603" 
d="M304 807l-61 -64h-43l84 90h40l84 -90h-43zM306 573l-98 -573h-64l-113 700h45l105 -638l102 635h49l98 -633l101 636h41l-112 -700h-60z" />
    <glyph glyph-name="Wdieresis" unicode="&#x1e84;" horiz-adv-x="603" 
d="M236 830h41v-85h-41v85zM333 830h41v-85h-41v85zM306 573l-98 -573h-64l-113 700h45l105 -638l102 635h49l98 -633l101 636h41l-112 -700h-60z" />
    <glyph glyph-name="Wgrave" unicode="&#x1e80;" horiz-adv-x="603" 
d="M229 842h50l71 -95h-36zM306 573l-98 -573h-64l-113 700h45l105 -638l102 635h49l98 -633l101 636h41l-112 -700h-60z" />
    <glyph glyph-name="X" unicode="X" horiz-adv-x="440" 
d="M360 0l-142 326l-142 -326h-45l158 363l-147 337h48l132 -301l133 301h44l-147 -337l157 -363h-49z" />
    <glyph glyph-name="Y" unicode="Y" horiz-adv-x="415" 
d="M184 0v269l-157 431h48l134 -368l134 368h45l-158 -431v-269h-46z" />
    <glyph glyph-name="Yacute" unicode="&#xdd;" horiz-adv-x="415" 
d="M247 835h47l-84 -95h-35zM184 0v269l-157 431h48l134 -368l134 368h45l-158 -431v-269h-46z" />
    <glyph glyph-name="Ycircumflex" unicode="&#x176;" horiz-adv-x="415" 
d="M209 806l-61 -63h-43l84 90h40l84 -90h-43zM184 0v269l-157 431h48l134 -368l134 368h45l-158 -431v-269h-46z" />
    <glyph glyph-name="Ydieresis" unicode="&#x178;" horiz-adv-x="415" 
d="M139 825h41v-84h-41v84zM236 825h41v-84h-41v84zM184 0v269l-157 431h48l134 -368l134 368h45l-158 -431v-269h-46z" />
    <glyph glyph-name="Ygrave" unicode="&#x1ef2;" horiz-adv-x="415" 
d="M127 842h49l72 -95h-37zM184 0v269l-157 431h48l134 -368l134 368h45l-158 -431v-269h-46z" />
    <glyph glyph-name="Z" unicode="Z" horiz-adv-x="388" 
d="M349 42v-42h-315v42l271 616h-258v42h306v-43l-271 -615h267z" />
    <glyph glyph-name="Zacute" unicode="&#x179;" horiz-adv-x="388" 
d="M242 842h48l-84 -95h-35zM349 42v-42h-315v42l271 616h-258v42h306v-43l-271 -615h267z" />
    <glyph glyph-name="Zcaron" unicode="&#x17d;" horiz-adv-x="388" 
d="M97 835h42l62 -63l61 63h43l-84 -90h-40zM349 42v-42h-315v42l271 616h-258v42h306v-43l-271 -615h267z" />
    <glyph glyph-name="Zdotaccent" unicode="&#x17b;" horiz-adv-x="388" 
d="M187 830h41v-84h-41v84zM349 42v-42h-315v42l271 616h-258v42h306v-43l-271 -615h267z" />
    <glyph glyph-name="uni0122" unicode="&#x122;" 
d="M188 706c107 0 151 -76 151 -177v-52h-44v55c0 75 -29 132 -106 132s-106 -57 -106 -132v-364c0 -75 29 -131 106 -131s106 56 106 131v151h-93v42h137v-190c0 -101 -44 -177 -151 -177s-151 76 -151 177v358c0 101 44 177 151 177zM162 -176l19 59h-13v83h39v-79
l-27 -63h-18z" />
    <glyph glyph-name="uni0136" unicode="&#x136;" horiz-adv-x="404" 
d="M327 0l-193 329l-48 -76v-253h-46v700h46v-370l228 370h48l-200 -326l213 -374h-48zM169 -176l20 59h-14v83h40v-79l-27 -63h-19z" />
    <glyph glyph-name="uni013B" unicode="&#x13b;" horiz-adv-x="335" 
d="M306 0h-266v700h46v-658h220v-42zM153 -179l19 59h-13v83h39v-79l-27 -63h-18z" />
    <glyph glyph-name="uni0145" unicode="&#x145;" horiz-adv-x="391" 
d="M82 624v-624h-42v700h60l210 -591v591h42v-700h-51zM169 -176l19 59h-13v83h39v-79l-27 -63h-18z" />
    <glyph glyph-name="uni0156" unicode="&#x156;" horiz-adv-x="386" 
d="M40 700h146c107 0 150 -59 150 -158v-61c0 -82 -32 -129 -101 -145c72 -16 101 -67 101 -143v-109c0 -29 2 -61 17 -84h-48c-12 21 -15 46 -15 84v110c0 93 -51 119 -131 119h-73v-313h-46v700zM86 355h74c82 0 130 23 130 117v66c0 75 -29 120 -105 120h-99v-303z
M164 -175l19 59h-13v83h39v-79l-27 -63h-18z" />
    <glyph glyph-name="uni0162" unicode="&#x162;" horiz-adv-x="388" 
d="M217 0h-9v-34c38 -1 68 -17 68 -58c0 -49 -44 -68 -85 -68c-40 0 -84 20 -84 64v6h28v-6c0 -28 32 -37 56 -38c25 0 56 11 56 41c0 32 -31 39 -60 39h-7v54h-9v658h-143v42h332v-42h-143v-658z" />
    <glyph glyph-name="uni0218" unicode="&#x218;" horiz-adv-x="370" 
d="M186 706c106 0 149 -74 149 -175v-15h-44v18c0 74 -28 130 -104 130s-104 -55 -104 -129c0 -170 253 -173 253 -366c0 -101 -44 -175 -151 -175s-151 74 -151 175v36h44v-39c0 -75 29 -129 106 -129s106 54 106 129c0 168 -253 171 -253 366c0 105 46 173 149 174z
M158 -176l20 59h-14v83h40v-79l-27 -63h-19z" />
    <glyph glyph-name="uni021A" unicode="&#x21a;" horiz-adv-x="388" 
d="M217 0h-46v658h-143v42h332v-42h-143v-658zM168 -176l20 59h-14v83h40v-79l-27 -63h-19z" />
    <glyph glyph-name="uni1E02" unicode="&#x1e02;" horiz-adv-x="378" 
d="M150 827h40v-85h-40v85zM40 700h147c105 0 143 -52 143 -149v-40c0 -76 -21 -123 -92 -138c76 -15 105 -71 105 -150v-61c0 -101 -46 -162 -153 -162h-150v700zM86 391h78c82 0 120 22 120 111v45c0 73 -23 111 -98 111h-100v-267zM86 42h104c77 0 107 43 107 121v63
c0 91 -41 123 -124 123h-87v-307z" />
    <glyph glyph-name="uni1E0A" unicode="&#x1e0a;" horiz-adv-x="385" 
d="M156 827h41v-85h-41v85zM40 700h154c108 0 155 -71 155 -174v-352c0 -103 -47 -174 -155 -174h-154v700zM86 42h107c78 0 110 53 110 130v356c0 77 -33 130 -110 130h-107v-616z" />
    <glyph glyph-name="uni1E1E" unicode="&#x1e1e;" horiz-adv-x="336" 
d="M151 826h41v-85h-41v85zM86 359h181v-42h-181v-317h-46v700h266v-42h-220v-299z" />
    <glyph glyph-name="uni1E40" unicode="&#x1e40;" horiz-adv-x="505" 
d="M232 831h41v-86h-41v86zM421 622l-146 -621h-46l-148 619v-620h-41v700h66l147 -619l146 619h66v-700h-44v622z" />
    <glyph glyph-name="uni1E56" unicode="&#x1e56;" horiz-adv-x="364" 
d="M150 827h41v-85h-41v85zM40 700h145c108 0 150 -68 150 -170v-76c0 -111 -51 -166 -162 -166h-87v-288h-46v700zM86 330h87c81 0 116 36 116 121v82c0 76 -26 125 -104 125h-99v-328z" />
    <glyph glyph-name="uni1E60" unicode="&#x1e60;" horiz-adv-x="370" 
d="M165 827h41v-84h-41v84zM186 706c106 0 149 -74 149 -175v-15h-44v18c0 74 -28 130 -104 130s-104 -55 -104 -129c0 -170 253 -173 253 -366c0 -101 -44 -175 -151 -175s-151 74 -151 175v36h44v-39c0 -75 29 -129 106 -129s106 54 106 129c0 168 -253 171 -253 366
c0 105 46 173 149 174z" />
    <glyph glyph-name="uni1E6A" unicode="&#x1e6a;" horiz-adv-x="388" 
d="M174 828h40v-85h-40v85zM217 0h-46v658h-143v42h332v-42h-143v-658z" />
    <glyph glyph-name="a" unicode="a" horiz-adv-x="436" 
d="M325 155h-218l-35 -155h-42l153 701h67l156 -701h-46zM215 648l-101 -453h204z" />
    <glyph glyph-name="aacute" unicode="&#xe1;" horiz-adv-x="436" 
d="M242 833h48l-84 -95h-35zM325 155h-218l-35 -155h-42l153 701h67l156 -701h-46zM215 648l-101 -453h204z" />
    <glyph glyph-name="abreve" unicode="&#x103;" horiz-adv-x="436" 
d="M284 821h30c-2 -55 -42 -88 -98 -88c-55 0 -95 32 -96 88h30c1 -40 31 -57 66 -57s66 17 68 57zM325 155h-218l-35 -155h-42l153 701h67l156 -701h-46zM215 648l-101 -453h204z" />
    <glyph glyph-name="acircumflex" unicode="&#xe2;" horiz-adv-x="436" 
d="M216 800l-61 -63h-43l84 90h40l85 -90h-44zM325 155h-218l-35 -155h-42l153 701h67l156 -701h-46zM215 648l-101 -453h204z" />
    <glyph glyph-name="adieresis" unicode="&#xe4;" horiz-adv-x="436" 
d="M147 821h41v-84h-41v84zM244 821h41v-84h-41v84zM325 155h-218l-35 -155h-42l153 701h67l156 -701h-46zM215 648l-101 -453h204z" />
    <glyph glyph-name="agrave" unicode="&#xe0;" horiz-adv-x="436" 
d="M135 832h50l71 -95h-36zM325 155h-218l-35 -155h-42l153 701h67l156 -701h-46zM215 648l-101 -453h204z" />
    <glyph glyph-name="amacron" unicode="&#x101;" horiz-adv-x="436" 
d="M119 793h195v-33h-195v33zM325 155h-218l-35 -155h-42l153 701h67l156 -701h-46zM215 648l-101 -453h204z" />
    <glyph glyph-name="aogonek" unicode="&#x105;" horiz-adv-x="436" 
d="M406 0h-15c-25 -20 -44 -55 -42 -80c1 -22 19 -32 39 -32c18 0 32 5 44 13v-28c-17 -9 -35 -13 -56 -13c-36 1 -63 16 -64 51c-1 30 19 63 48 87l-35 157h-218l-35 -155h-42l153 701h67zM215 648l-101 -453h204z" />
    <glyph glyph-name="aring" unicode="&#xe5;" horiz-adv-x="436" 
d="M216 872c37 0 67 -29 67 -66c0 -38 -30 -67 -67 -67c-38 0 -67 29 -67 67c0 37 29 66 67 66zM216 847c-24 0 -43 -17 -43 -41c0 -25 19 -42 43 -42c23 0 43 17 43 42c0 24 -20 41 -43 41zM325 155h-218l-35 -155h-42l153 701h67l156 -701h-46zM215 648l-101 -453h204z
" />
    <glyph glyph-name="atilde" unicode="&#xe3;" horiz-adv-x="436" 
d="M170 814c38 0 63 -35 93 -34c17 1 28 13 37 31l25 -17c-13 -29 -32 -47 -58 -47c-37 -2 -61 34 -93 33c-19 0 -32 -11 -42 -30l-25 16c14 31 35 47 63 48zM325 155h-218l-35 -155h-42l153 701h67l156 -701h-46zM215 648l-101 -453h204z" />
    <glyph glyph-name="ae" unicode="&#xe6;" horiz-adv-x="589" 
d="M349 376h169v-42h-169v-292h204v-42h-250v157h-175l-57 -157h-44l249 700h277v-42h-204v-282zM303 643l-163 -445h163v445z" />
    <glyph glyph-name="aeacute" unicode="&#x1fd;" horiz-adv-x="589" 
d="M364 840h48l-84 -95h-35zM349 376h169v-42h-169v-292h204v-42h-250v157h-175l-57 -157h-44l249 700h277v-42h-204v-282zM303 643l-163 -445h163v445z" />
    <glyph glyph-name="b" unicode="b" horiz-adv-x="378" 
d="M40 700h147c105 0 143 -52 143 -149v-40c0 -76 -21 -123 -92 -138c76 -15 105 -71 105 -150v-61c0 -101 -46 -162 -153 -162h-150v700zM86 391h78c82 0 120 22 120 111v45c0 73 -23 111 -98 111h-100v-267zM86 42h104c77 0 107 43 107 121v63c0 91 -41 123 -124 123h-87
v-307z" />
    <glyph glyph-name="c" unicode="c" horiz-adv-x="374" 
d="M188 706c107 0 151 -76 151 -177v-58h-44v61c0 75 -29 132 -106 132s-106 -57 -106 -132v-364c0 -75 29 -131 106 -131s106 56 106 131v83h44v-80c0 -101 -44 -177 -151 -177s-151 76 -151 177v358c0 101 44 177 151 177z" />
    <glyph glyph-name="cacute" unicode="&#x107;" horiz-adv-x="374" 
d="M225 842h48l-84 -95h-35zM188 706c107 0 151 -76 151 -177v-58h-44v61c0 75 -29 132 -106 132s-106 -57 -106 -132v-364c0 -75 29 -131 106 -131s106 56 106 131v83h44v-80c0 -101 -44 -177 -151 -177s-151 76 -151 177v358c0 101 44 177 151 177z" />
    <glyph glyph-name="ccaron" unicode="&#x10d;" horiz-adv-x="374" 
d="M89 834h42l62 -64l61 64h43l-84 -90h-40zM188 706c107 0 151 -76 151 -177v-58h-44v61c0 75 -29 132 -106 132s-106 -57 -106 -132v-364c0 -75 29 -131 106 -131s106 56 106 131v83h44v-80c0 -101 -44 -177 -151 -177s-151 76 -151 177v358c0 101 44 177 151 177z" />
    <glyph glyph-name="ccedilla" unicode="&#xe7;" horiz-adv-x="374" 
d="M188 706c107 0 151 -76 151 -177v-58h-44v61c0 75 -29 132 -106 132s-106 -57 -106 -132v-364c0 -75 29 -131 106 -131s106 56 106 131v83h44v-80c0 -97 -41 -172 -140 -177v-28c47 -1 75 -22 75 -56c0 -41 -33 -65 -89 -64c-55 0 -88 23 -88 63v6h32v-5
c0 -22 21 -37 56 -39c36 0 57 15 57 40c0 23 -22 37 -60 37h-7v47c-98 5 -138 79 -138 176v358c0 101 44 177 151 177z" />
    <glyph glyph-name="ccircumflex" unicode="&#x109;" horiz-adv-x="374" 
d="M191 807l-61 -64h-43l84 90h40l85 -90h-44zM188 706c107 0 151 -76 151 -177v-58h-44v61c0 75 -29 132 -106 132s-106 -57 -106 -132v-364c0 -75 29 -131 106 -131s106 56 106 131v83h44v-80c0 -101 -44 -177 -151 -177s-151 76 -151 177v358c0 101 44 177 151 177z" />
    <glyph glyph-name="cdotaccent" unicode="&#x10b;" horiz-adv-x="374" 
d="M167 824h41v-84h-41v84zM188 706c107 0 151 -76 151 -177v-58h-44v61c0 75 -29 132 -106 132s-106 -57 -106 -132v-364c0 -75 29 -131 106 -131s106 56 106 131v83h44v-80c0 -101 -44 -177 -151 -177s-151 76 -151 177v358c0 101 44 177 151 177z" />
    <glyph glyph-name="d" unicode="d" horiz-adv-x="385" 
d="M40 700h154c108 0 155 -71 155 -174v-352c0 -103 -47 -174 -155 -174h-154v700zM86 42h107c78 0 110 53 110 130v356c0 77 -33 130 -110 130h-107v-616z" />
    <glyph glyph-name="eth" unicode="&#xf0;" horiz-adv-x="385" 
d="M40 700h154c108 0 155 -71 155 -174v-352c0 -103 -47 -174 -155 -174h-154v330h-42v38h42v332zM176 368v-38h-90v-288h107c78 0 110 53 110 130v356c0 77 -33 130 -110 130h-107v-290h90z" />
    <glyph glyph-name="dcaron" unicode="&#x10f;" horiz-adv-x="385" 
d="M78 830h43l61 -64l61 64h44l-85 -90h-40zM40 700h154c108 0 155 -71 155 -174v-352c0 -103 -47 -174 -155 -174h-154v700zM86 42h107c78 0 110 53 110 130v356c0 77 -33 130 -110 130h-107v-616z" />
    <glyph glyph-name="dcroat" unicode="&#x111;" horiz-adv-x="385" 
d="M40 700h154c108 0 155 -71 155 -174v-352c0 -103 -47 -174 -155 -174h-154v330h-42v38h42v332zM176 368v-38h-90v-288h107c78 0 110 53 110 130v356c0 77 -33 130 -110 130h-107v-290h90z" />
    <glyph glyph-name="e" unicode="e" horiz-adv-x="351" 
d="M86 376h191v-42h-191v-292h230v-42h-276v700h276v-42h-230v-282z" />
    <glyph glyph-name="eacute" unicode="&#xe9;" horiz-adv-x="351" 
d="M212 835h48l-84 -95h-35zM86 376h191v-42h-191v-292h230v-42h-276v700h276v-42h-230v-282z" />
    <glyph glyph-name="ebreve" unicode="&#x115;" horiz-adv-x="351" 
d="M244 832h30c-2 -55 -42 -88 -98 -88c-55 0 -95 32 -96 88h30c1 -41 31 -57 66 -57c36 0 66 16 68 57zM86 376h191v-42h-191v-292h230v-42h-276v700h276v-42h-230v-282z" />
    <glyph glyph-name="ecaron" unicode="&#x11b;" horiz-adv-x="351" 
d="M76 831h43l61 -64l61 64h43l-84 -90h-40zM86 376h191v-42h-191v-292h230v-42h-276v700h276v-42h-230v-282z" />
    <glyph glyph-name="ecircumflex" unicode="&#xea;" horiz-adv-x="351" 
d="M177 805l-61 -64h-43l84 90h40l85 -90h-44zM86 376h191v-42h-191v-292h230v-42h-276v700h276v-42h-230v-282z" />
    <glyph glyph-name="edieresis" unicode="&#xeb;" horiz-adv-x="351" 
d="M109 825h40v-85h-40v85zM205 825h41v-85h-41v85zM86 376h191v-42h-191v-292h230v-42h-276v700h276v-42h-230v-282z" />
    <glyph glyph-name="edotaccent" unicode="&#x117;" horiz-adv-x="351" 
d="M159 827h41v-85h-41v85zM86 376h191v-42h-191v-292h230v-42h-276v700h276v-42h-230v-282z" />
    <glyph glyph-name="egrave" unicode="&#xe8;" horiz-adv-x="351" 
d="M103 842h50l71 -95h-37zM86 376h191v-42h-191v-292h230v-42h-276v700h276v-42h-230v-282z" />
    <glyph glyph-name="emacron" unicode="&#x113;" horiz-adv-x="351" 
d="M81 796h188v-34h-188v34zM86 376h191v-42h-191v-292h230v-42h-276v700h276v-42h-230v-282z" />
    <glyph glyph-name="eogonek" unicode="&#x119;" horiz-adv-x="351" 
d="M86 376h191v-42h-191v-292h230v-42h-23c-25 -20 -46 -55 -45 -80c1 -22 19 -32 39 -32c18 0 32 5 44 13v-28c-17 -9 -35 -13 -56 -13c-36 1 -62 16 -64 51c-1 32 23 67 53 89h-224v700h276v-42h-230v-282z" />
    <glyph glyph-name="f" unicode="f" horiz-adv-x="336" 
d="M86 359h181v-42h-181v-317h-46v700h266v-42h-220v-299z" />
    <glyph glyph-name="g" unicode="g" 
d="M188 706c107 0 151 -76 151 -177v-52h-44v55c0 75 -29 132 -106 132s-106 -57 -106 -132v-364c0 -75 29 -131 106 -131s106 56 106 131v151h-93v42h137v-190c0 -101 -44 -177 -151 -177s-151 76 -151 177v358c0 101 44 177 151 177z" />
    <glyph glyph-name="gbreve" unicode="&#x11f;" 
d="M256 834h30c-1 -55 -42 -88 -97 -88c-56 0 -96 32 -97 88h30c2 -41 31 -57 67 -57c35 0 65 16 67 57zM188 706c107 0 151 -76 151 -177v-52h-44v55c0 75 -29 132 -106 132s-106 -57 -106 -132v-364c0 -75 29 -131 106 -131s106 56 106 131v151h-93v42h137v-190
c0 -101 -44 -177 -151 -177s-151 76 -151 177v358c0 101 44 177 151 177z" />
    <glyph glyph-name="gcircumflex" unicode="&#x11d;" 
d="M189 811l-61 -64h-43l84 90h40l84 -90h-43zM188 706c107 0 151 -76 151 -177v-52h-44v55c0 75 -29 132 -106 132s-106 -57 -106 -132v-364c0 -75 29 -131 106 -131s106 56 106 131v151h-93v42h137v-190c0 -101 -44 -177 -151 -177s-151 76 -151 177v358
c0 101 44 177 151 177z" />
    <glyph glyph-name="gdotaccent" unicode="&#x121;" 
d="M174 828h40v-85h-40v85zM188 706c107 0 151 -76 151 -177v-52h-44v55c0 75 -29 132 -106 132s-106 -57 -106 -132v-364c0 -75 29 -131 106 -131s106 56 106 131v151h-93v42h137v-190c0 -101 -44 -177 -151 -177s-151 76 -151 177v358c0 101 44 177 151 177z" />
    <glyph glyph-name="h" unicode="h" horiz-adv-x="391" 
d="M304 329h-218v-329h-46v700h46v-329h218v329h47v-700h-47v329z" />
    <glyph glyph-name="hbar" unicode="&#x127;" horiz-adv-x="394" 
d="M389 525h-37v-525h-46v329h-218v-329h-46v525h-38v35h38v140h46v-140h218v140h46v-140h37v-35zM306 371v154h-218v-154h218z" />
    <glyph glyph-name="hcircumflex" unicode="&#x125;" horiz-adv-x="391" 
d="M195 809l-61 -64h-43l84 90h40l85 -90h-44zM304 329h-218v-329h-46v700h46v-329h218v329h47v-700h-47v329z" />
    <glyph glyph-name="i" unicode="i" horiz-adv-x="126" 
d="M40 700h46v-700h-46v700z" />
    <glyph glyph-name="dotlessi" unicode="&#x131;" horiz-adv-x="126" 
d="M40 700h46v-700h-46v700z" />
    <glyph glyph-name="iacute" unicode="&#xed;" horiz-adv-x="126" 
d="M25 741l71 95h48l-84 -95h-35zM40 0v700h46v-700h-46z" />
    <glyph glyph-name="ibreve" unicode="&#x12d;" horiz-adv-x="126" 
d="M130 828h30c-1 -56 -42 -89 -97 -89c-56 0 -96 33 -97 89h30c2 -41 32 -58 67 -58s65 17 67 58zM40 0v700h46v-700h-46z" />
    <glyph glyph-name="icircumflex" unicode="&#xee;" horiz-adv-x="126" 
d="M43 830h40l84 -90h-43l-61 64l-61 -64h-43zM40 0v700h46v-700h-46z" />
    <glyph glyph-name="idieresis" unicode="&#xef;" horiz-adv-x="126" 
d="M-6 825h41v-84h-41v84zM91 825h41v-84h-41v84zM40 700h46v-700h-46v700z" />
    <glyph glyph-name="igrave" unicode="&#xec;" horiz-adv-x="126" 
d="M60 740l-84 95h49l71 -95h-36zM40 0v700h46v-700h-46z" />
    <glyph glyph-name="ij" unicode="&#x133;" horiz-adv-x="379" 
d="M40 700h46v-700h-46v700zM341 700v-528c0 -125 -56 -168 -144 -173c-15 0 -27 0 -42 1v42h37c71 5 103 41 103 127v531h46z" />
    <glyph glyph-name="imacron" unicode="&#x12b;" horiz-adv-x="126" 
d="M-21 793h168v-33h-168v33zM40 700h46v-700h-46v700z" />
    <glyph glyph-name="iogonek" unicode="&#x12f;" horiz-adv-x="126" 
d="M86 0h-7c-24 -20 -44 -55 -43 -80c1 -22 19 -32 39 -32c19 0 33 5 44 13v-28c-17 -9 -35 -13 -56 -13c-35 1 -62 16 -64 51c-1 31 19 64 53 89h-13l1 700h46v-700z" />
    <glyph glyph-name="itilde" unicode="&#x129;" horiz-adv-x="126" 
d="M148 815l25 -16c-13 -30 -32 -47 -58 -48c-37 -1 -62 34 -94 33c-18 0 -31 -11 -41 -30l-25 17c14 30 35 47 62 47c39 1 64 -34 94 -33c16 0 28 13 37 30zM40 700h46v-700h-46v700z" />
    <glyph glyph-name="j" unicode="j" horiz-adv-x="253" 
d="M29 0v42c14 -1 28 0 41 1c66 5 99 40 99 126v531h46v-528c0 -123 -55 -168 -140 -172c-15 -1 -30 -1 -46 0z" />
    <glyph glyph-name="uni0237" unicode="&#x237;" horiz-adv-x="253" 
d="M29 0v42c14 -1 28 0 41 1c66 5 99 40 99 126v531h46v-528c0 -123 -55 -168 -140 -172c-15 -1 -30 -1 -46 0z" />
    <glyph glyph-name="jcircumflex" unicode="&#x135;" horiz-adv-x="253" 
d="M185 805l-61 -64h-43l84 90h40l85 -90h-44zM215 700v-528c0 -123 -55 -168 -140 -172c-15 -1 -30 -1 -46 0v42c14 -1 28 0 41 1c66 5 99 40 99 126v531h46z" />
    <glyph glyph-name="k" unicode="k" horiz-adv-x="404" 
d="M327 0l-193 329l-48 -76v-253h-46v700h46v-370l228 370h48l-200 -326l213 -374h-48z" />
    <glyph glyph-name="kgreenlandic" unicode="&#x138;" horiz-adv-x="404" 
d="M327 0l-193 329l-48 -76v-253h-46v700h46v-370l228 370h48l-200 -326l213 -374h-48z" />
    <glyph glyph-name="l" unicode="l" horiz-adv-x="335" 
d="M306 0h-266v700h46v-658h220v-42z" />
    <glyph glyph-name="lacute" unicode="&#x13a;" horiz-adv-x="335" 
d="M111 836h48l-84 -95h-35zM306 0h-266v700h46v-658h220v-42z" />
    <glyph glyph-name="lcaron" unicode="&#x13e;" horiz-adv-x="335" 
d="M306 0h-266v700h46v-658h220v-42zM211 536l20 76h-16v88h45v-84l-29 -80h-20z" />
    <glyph glyph-name="ldot" unicode="&#x140;" horiz-adv-x="335" 
d="M306 0h-266v700h46v-658h220v-42zM185 397h45v-88h-45v88z" />
    <glyph glyph-name="lslash" unicode="&#x142;" horiz-adv-x="347" 
d="M195 412l-96 -95v-275h220v-42h-266v268l-53 -49v44l53 49v388h46v-339l96 96v-45z" />
    <glyph glyph-name="m" unicode="m" horiz-adv-x="505" 
d="M421 622l-146 -621h-46l-148 619v-620h-41v700h66l147 -619l146 619h66v-700h-44v622z" />
    <glyph glyph-name="n" unicode="n" horiz-adv-x="391" 
d="M82 624v-624h-42v700h60l210 -591v591h42v-700h-51z" />
    <glyph glyph-name="nacute" unicode="&#x144;" horiz-adv-x="391" 
d="M235 837h47l-84 -95h-35zM82 625v-624h-42v700h60l210 -591v591h42v-700h-51z" />
    <glyph glyph-name="napostrophe" unicode="&#x149;" horiz-adv-x="465" 
d="M13 536l21 76h-16v88h44v-84l-28 -80h-21zM155 624v-624h-42v700h61l210 -591v591h41v-700h-50z" />
    <glyph glyph-name="ncaron" unicode="&#x148;" horiz-adv-x="391" 
d="M93 835h43l61 -63l61 63h43l-84 -90h-40zM82 624v-624h-42v700h60l210 -591v591h42v-700h-51z" />
    <glyph glyph-name="ntilde" unicode="&#xf1;" horiz-adv-x="391" 
d="M281 819l24 -17c-12 -29 -32 -46 -58 -47c-37 -1 -61 34 -93 33c-18 0 -31 -11 -42 -30l-24 16c13 31 35 47 62 48c38 1 63 -35 93 -33c17 0 29 13 38 30zM82 624v-624h-42v700h60l210 -591v591h42v-700h-51z" />
    <glyph glyph-name="o" unicode="o" horiz-adv-x="381" 
d="M37 171v358c0 102 47 177 153 177c108 0 155 -75 155 -177v-358c0 -102 -47 -177 -155 -177c-106 0 -153 75 -153 177zM83 532v-364c0 -76 30 -132 107 -132c78 0 109 56 109 132v364c0 76 -31 132 -109 132c-77 0 -107 -56 -107 -132z" />
    <glyph glyph-name="oacute" unicode="&#xf3;" horiz-adv-x="381" 
d="M223 842h48l-84 -95h-35zM190 706c108 0 155 -75 155 -177v-358c0 -102 -47 -177 -155 -177c-106 0 -153 75 -153 177v358c0 102 47 177 153 177zM190 664c-77 0 -107 -56 -107 -132v-364c0 -76 30 -132 107 -132c78 0 109 56 109 132v364c0 76 -31 132 -109 132z" />
    <glyph glyph-name="obreve" unicode="&#x14f;" horiz-adv-x="381" 
d="M258 834h30c-2 -55 -42 -88 -98 -88c-55 0 -95 32 -96 88h29c2 -41 32 -57 67 -57s65 16 68 57zM190 706c108 0 155 -75 155 -177v-358c0 -102 -47 -177 -155 -177c-106 0 -153 75 -153 177v358c0 102 47 177 153 177zM190 664c-77 0 -107 -56 -107 -132v-364
c0 -76 30 -132 107 -132c78 0 109 56 109 132v364c0 76 -31 132 -109 132z" />
    <glyph glyph-name="ocircumflex" unicode="&#xf4;" horiz-adv-x="381" 
d="M190 809l-61 -64h-43l84 90h40l84 -90h-43zM190 706c108 0 155 -75 155 -177v-358c0 -102 -47 -177 -155 -177c-106 0 -153 75 -153 177v358c0 102 47 177 153 177zM190 664c-77 0 -107 -56 -107 -132v-364c0 -76 30 -132 107 -132c78 0 109 56 109 132v364
c0 76 -31 132 -109 132z" />
    <glyph glyph-name="odieresis" unicode="&#xf6;" horiz-adv-x="381" 
d="M121 830h41v-85h-41v85zM218 830h41v-85h-41v85zM190 706c108 0 155 -75 155 -177v-358c0 -102 -47 -177 -155 -177c-106 0 -153 75 -153 177v358c0 102 47 177 153 177zM190 664c-77 0 -107 -56 -107 -132v-364c0 -76 30 -132 107 -132c78 0 109 56 109 132v364
c0 76 -31 132 -109 132z" />
    <glyph glyph-name="ograve" unicode="&#xf2;" horiz-adv-x="381" 
d="M108 842h50l71 -95h-37zM190 706c108 0 155 -75 155 -177v-358c0 -102 -47 -177 -155 -177c-106 0 -153 75 -153 177v358c0 102 47 177 153 177zM190 664c-77 0 -107 -56 -107 -132v-364c0 -76 30 -132 107 -132c78 0 109 56 109 132v364c0 76 -31 132 -109 132z" />
    <glyph glyph-name="ohungarumlaut" unicode="&#x151;" horiz-adv-x="381" 
d="M183 842h45l-77 -95h-33zM268 842h45l-78 -95h-32zM190 706c108 0 155 -75 155 -177v-358c0 -102 -47 -177 -155 -177c-106 0 -153 75 -153 177v358c0 102 47 177 153 177zM190 664c-77 0 -107 -56 -107 -132v-364c0 -76 30 -132 107 -132c78 0 109 56 109 132v364
c0 76 -31 132 -109 132z" />
    <glyph glyph-name="omacron" unicode="&#x14d;" horiz-adv-x="381" 
d="M98 794h187v-34h-187v34zM190 706c108 0 155 -75 155 -177v-358c0 -102 -47 -177 -155 -177c-106 0 -153 75 -153 177v358c0 102 47 177 153 177zM190 664c-77 0 -107 -56 -107 -132v-364c0 -76 30 -132 107 -132c78 0 109 56 109 132v364c0 76 -31 132 -109 132z" />
    <glyph glyph-name="oslash" unicode="&#xf8;" horiz-adv-x="381" 
d="M339 707l-23 -62c20 -30 29 -70 29 -116v-358c0 -102 -47 -177 -155 -177c-47 0 -83 15 -107 40l-20 -51l-23 8l25 66c-19 30 -28 69 -28 114v358c0 102 47 177 153 177c48 0 83 -15 108 -40l19 49zM83 532v-364c0 -18 2 -35 5 -51l192 501c-17 28 -46 46 -90 46
c-77 0 -107 -56 -107 -132zM299 168v364c0 19 -2 37 -6 54l-192 -503c17 -29 45 -47 89 -47c78 0 109 56 109 132z" />
    <glyph glyph-name="oslashacute" unicode="&#x1ff;" horiz-adv-x="381" 
d="M159 747l71 95h48l-84 -95h-35zM339 707l-23 -62c20 -30 29 -70 29 -116v-358c0 -102 -47 -177 -155 -177c-47 0 -83 15 -107 40l-20 -51l-23 8l25 66c-19 30 -28 69 -28 114v358c0 102 47 177 153 177c48 0 83 -15 108 -40l19 49zM83 532v-364c0 -18 2 -35 5 -51
l192 501c-17 28 -46 46 -90 46c-77 0 -107 -56 -107 -132zM299 168v364c0 19 -2 37 -6 54l-192 -503c17 -29 45 -47 89 -47c78 0 109 56 109 132z" />
    <glyph glyph-name="otilde" unicode="&#xf5;" horiz-adv-x="381" 
d="M278 816l25 -16c-12 -29 -32 -47 -58 -48c-37 -1 -61 34 -93 34c-19 0 -32 -11 -42 -31l-25 17c14 30 36 47 63 47c38 1 63 -34 93 -33c17 1 29 13 37 30zM190 706c108 0 155 -75 155 -177v-358c0 -102 -47 -177 -155 -177c-106 0 -153 75 -153 177v358
c0 102 47 177 153 177zM190 664c-77 0 -107 -56 -107 -132v-364c0 -76 30 -132 107 -132c78 0 109 56 109 132v364c0 76 -31 132 -109 132z" />
    <glyph glyph-name="oe" unicode="&#x153;" horiz-adv-x="568" 
d="M327 376h170v-42h-170v-292h205v-42h-350c-105 0 -146 77 -146 174v352c0 97 41 174 146 174h350v-42h-205v-282zM281 658h-98c-74 0 -101 -59 -101 -130v-356c0 -71 27 -130 101 -130h98v616z" />
    <glyph glyph-name="p" unicode="p" horiz-adv-x="364" 
d="M40 700h145c108 0 150 -68 150 -170v-76c0 -111 -51 -166 -162 -166h-87v-288h-46v700zM86 330h87c81 0 116 36 116 121v82c0 76 -26 125 -104 125h-99v-328z" />
    <glyph glyph-name="thorn" unicode="&#xfe;" horiz-adv-x="377" 
d="M86 578h99c108 0 150 -68 150 -170v-76c0 -111 -51 -166 -162 -166h-87v-166h-46v700h46v-122zM86 208h87c81 0 116 36 116 121v81c0 77 -26 125 -104 125h-99v-327z" />
    <glyph glyph-name="q" unicode="q" horiz-adv-x="389" 
d="M191 706c107 0 154 -75 154 -177v-358c0 -48 -10 -90 -33 -121c12 -21 30 -28 55 -28h11v-41h-12c-39 0 -66 13 -83 41c-23 -17 -53 -28 -92 -28c-107 0 -154 75 -154 177v358c0 102 47 177 154 177zM191 664c-77 0 -108 -56 -108 -132v-364c0 -76 31 -132 108 -132
s108 56 108 132v364c0 76 -31 132 -108 132z" />
    <glyph glyph-name="r" unicode="r" horiz-adv-x="386" 
d="M40 700h146c107 0 150 -59 150 -158v-61c0 -82 -32 -129 -101 -145c72 -16 101 -67 101 -143v-109c0 -29 2 -61 17 -84h-48c-12 21 -15 46 -15 84v110c0 93 -51 119 -131 119h-73v-313h-46v700zM86 355h74c82 0 130 23 130 117v66c0 75 -29 120 -105 120h-99v-303z" />
    <glyph glyph-name="racute" unicode="&#x155;" horiz-adv-x="386" 
d="M213 842h48l-84 -95h-35zM40 700h146c107 0 150 -59 150 -158v-61c0 -82 -32 -129 -101 -145c72 -16 101 -67 101 -143v-109c0 -29 2 -61 17 -84h-48c-12 21 -15 46 -15 84v110c0 93 -51 119 -131 119h-73v-313h-46v700zM86 355h74c82 0 130 23 130 117v66
c0 75 -29 120 -105 120h-99v-303z" />
    <glyph glyph-name="rcaron" unicode="&#x159;" horiz-adv-x="386" 
d="M73 836h43l61 -64l61 64h44l-85 -90h-40zM40 700h146c107 0 150 -59 150 -158v-61c0 -82 -32 -129 -101 -145c72 -16 101 -67 101 -143v-109c0 -29 2 -61 17 -84h-48c-12 21 -15 46 -15 84v110c0 93 -51 119 -131 119h-73v-313h-46v700zM86 355h74c82 0 130 23 130 117
v66c0 75 -29 120 -105 120h-99v-303z" />
    <glyph glyph-name="s" unicode="s" horiz-adv-x="370" 
d="M186 706c106 0 149 -74 149 -175v-15h-44v18c0 74 -28 130 -104 130s-104 -55 -104 -129c0 -170 253 -173 253 -366c0 -101 -44 -175 -151 -175s-151 74 -151 175v36h44v-39c0 -75 29 -129 106 -129s106 54 106 129c0 168 -253 171 -253 366c0 105 46 173 149 174z" />
    <glyph glyph-name="sacute" unicode="&#x15b;" horiz-adv-x="370" 
d="M225 842h48l-84 -95h-35zM186 706c106 0 149 -74 149 -175v-15h-44v18c0 74 -28 130 -104 130s-104 -55 -104 -129c0 -170 253 -173 253 -366c0 -101 -44 -175 -151 -175s-151 74 -151 175v36h44v-39c0 -75 29 -129 106 -129s106 54 106 129c0 168 -253 171 -253 366
c0 105 46 173 149 174z" />
    <glyph glyph-name="scaron" unicode="&#x161;" horiz-adv-x="370" 
d="M83 836h43l61 -64l61 64h44l-85 -90h-40zM186 706c106 0 149 -74 149 -175v-15h-44v18c0 74 -28 130 -104 130s-104 -55 -104 -129c0 -170 253 -173 253 -366c0 -101 -44 -175 -151 -175s-151 74 -151 175v36h44v-39c0 -75 29 -129 106 -129s106 54 106 129
c0 168 -253 171 -253 366c0 105 46 173 149 174z" />
    <glyph glyph-name="scedilla" unicode="&#x15f;" horiz-adv-x="370" 
d="M197 -6v-28c47 -1 75 -22 75 -56c0 -41 -33 -65 -89 -64c-55 0 -88 23 -88 63v6h32v-5c0 -22 21 -37 56 -39c36 0 57 15 57 40c0 23 -22 37 -60 37h-7v47c-99 4 -139 77 -139 174v36h44v-39c0 -75 29 -129 106 -129s106 54 106 129c0 168 -253 171 -253 366
c0 105 46 173 149 174c106 0 149 -74 149 -175v-15h-44v18c0 74 -28 130 -104 130s-104 -55 -104 -129c0 -170 253 -173 253 -366c0 -98 -41 -170 -139 -175z" />
    <glyph glyph-name="scircumflex" unicode="&#x15d;" horiz-adv-x="370" 
d="M190 809l-61 -64h-43l84 90h40l84 -90h-43zM186 706c106 0 149 -74 149 -175v-15h-44v18c0 74 -28 130 -104 130s-104 -55 -104 -129c0 -170 253 -173 253 -366c0 -101 -44 -175 -151 -175s-151 74 -151 175v36h44v-39c0 -75 29 -129 106 -129s106 54 106 129
c0 168 -253 171 -253 366c0 105 46 173 149 174z" />
    <glyph glyph-name="germandbls" unicode="&#xdf;" horiz-adv-x="712" 
d="M183 706c106 0 149 -74 149 -175v-15h-44v18c0 74 -28 130 -104 130s-104 -55 -104 -129c0 -170 253 -173 253 -366c0 -101 -44 -175 -151 -175s-151 74 -151 175v36h44v-39c0 -75 29 -129 106 -129c76 0 106 54 106 129c0 168 -253 171 -253 366c0 105 46 173 149 174z
M530 706c106 0 149 -74 149 -175v-15h-44v18c0 74 -28 130 -104 130s-104 -55 -104 -129c0 -170 253 -173 253 -366c0 -101 -44 -175 -151 -175s-151 74 -151 175v36h44v-39c0 -75 29 -129 106 -129s106 54 106 129c0 168 -253 171 -253 366c0 105 46 173 149 174z" />
    <glyph glyph-name="t" unicode="t" horiz-adv-x="364" 
d="M204 0h-46v658h-142v42h331v-42h-143v-658z" />
    <glyph glyph-name="tbar" unicode="&#x167;" horiz-adv-x="388" 
d="M217 465h76v-35h-76v-430h-46v430h-76v35h76v193h-143v42h332v-42h-143v-193z" />
    <glyph glyph-name="tcaron" unicode="&#x165;" horiz-adv-x="388" 
d="M90 831h42l62 -63l61 63h43l-84 -90h-41zM217 0h-46v658h-143v42h332v-42h-143v-658z" />
    <glyph glyph-name="u" unicode="u" 
d="M84 700v-531c0 -75 28 -133 105 -133s105 58 105 133v531h43v-529c0 -100 -42 -177 -149 -177s-150 77 -150 177v529h46z" />
    <glyph glyph-name="uacute" unicode="&#xfa;" 
d="M227 842h48l-84 -95h-35zM337 700v-529c0 -100 -42 -177 -149 -177s-150 77 -150 177v529h46v-531c0 -75 28 -133 105 -133s105 58 105 133v531h43z" />
    <glyph glyph-name="ubreve" unicode="&#x16d;" 
d="M257 828h29c-1 -56 -41 -89 -97 -89c-55 0 -96 33 -97 89h30c2 -41 32 -58 67 -58s65 17 68 58zM337 700v-529c0 -100 -42 -177 -149 -177s-150 77 -150 177v529h46v-531c0 -75 28 -133 105 -133s105 58 105 133v531h43z" />
    <glyph glyph-name="ucircumflex" unicode="&#xfb;" 
d="M189 809l-61 -64h-43l84 90h40l85 -90h-44zM337 700v-529c0 -100 -42 -177 -149 -177s-150 77 -150 177v529h46v-531c0 -75 28 -133 105 -133s105 58 105 133v531h43z" />
    <glyph glyph-name="udieresis" unicode="&#xfc;" 
d="M119 828h41v-85h-41v85zM216 828h41v-85h-41v85zM337 700v-529c0 -100 -42 -177 -149 -177s-150 77 -150 177v529h46v-531c0 -75 28 -133 105 -133s105 58 105 133v531h43z" />
    <glyph glyph-name="ugrave" unicode="&#xf9;" 
d="M105 836h50l71 -95h-37zM337 700v-529c0 -100 -42 -177 -149 -177s-150 77 -150 177v529h46v-531c0 -75 28 -133 105 -133s105 58 105 133v531h43z" />
    <glyph glyph-name="uhungarumlaut" unicode="&#x171;" 
d="M180 840h45l-77 -95h-33zM265 840h45l-78 -95h-32zM337 700v-529c0 -100 -42 -177 -149 -177s-150 77 -150 177v529h46v-531c0 -75 28 -133 105 -133s105 58 105 133v531h43z" />
    <glyph glyph-name="umacron" unicode="&#x16b;" 
d="M100 793h182v-33h-182v33zM337 700v-529c0 -100 -42 -177 -149 -177s-150 77 -150 177v529h46v-531c0 -75 28 -133 105 -133s105 58 105 133v531h43z" />
    <glyph glyph-name="uni0123" unicode="&#x123;" 
d="M188 706c107 0 151 -76 151 -177v-52h-44v55c0 75 -29 132 -106 132s-106 -57 -106 -132v-364c0 -75 29 -131 106 -131s106 56 106 131v151h-93v42h137v-190c0 -101 -44 -177 -151 -177s-151 76 -151 177v358c0 101 44 177 151 177zM162 -176l20 59h-14v83h40v-79
l-27 -63h-19z" />
    <glyph glyph-name="uni0137" unicode="&#x137;" horiz-adv-x="404" 
d="M327 0l-193 329l-48 -76v-253h-46v700h46v-370l228 370h48l-200 -326l213 -374h-48zM169 -176l20 59h-14v83h40v-79l-27 -63h-19z" />
    <glyph glyph-name="uni013C" unicode="&#x13c;" horiz-adv-x="335" 
d="M306 0h-266v700h46v-658h220v-42zM159 -176l20 59h-14v83h39v-79l-27 -63h-18z" />
    <glyph glyph-name="uni0146" unicode="&#x146;" horiz-adv-x="391" 
d="M82 624v-624h-42v700h60l210 -591v591h42v-700h-51zM169 -176l19 59h-13v83h39v-79l-27 -63h-18z" />
    <glyph glyph-name="uni0157" unicode="&#x157;" horiz-adv-x="386" 
d="M40 700h146c107 0 150 -59 150 -158v-61c0 -82 -32 -129 -101 -145c72 -16 101 -67 101 -143v-109c0 -29 2 -61 17 -84h-48c-12 21 -15 46 -15 84v110c0 93 -51 119 -131 119h-73v-313h-46v700zM86 355h74c82 0 130 23 130 117v66c0 75 -29 120 -105 120h-99v-303z
M165 -176l20 59h-14v83h40v-79l-27 -63h-19z" />
    <glyph glyph-name="uni0163" unicode="&#x163;" horiz-adv-x="388" 
d="M217 0h-9v-36c38 -1 69 -15 69 -56c0 -49 -46 -68 -87 -68c-40 0 -83 20 -83 64v6h28v-6c0 -28 32 -37 56 -38c25 0 56 11 56 41c0 32 -32 39 -61 39h-7v54h-8v658h-143v42h332v-42h-143v-658z" />
    <glyph glyph-name="uni0219" unicode="&#x219;" horiz-adv-x="370" 
d="M186 706c106 0 149 -74 149 -175v-15h-44v18c0 74 -28 130 -104 130s-104 -55 -104 -129c0 -170 253 -173 253 -366c0 -101 -44 -175 -151 -175s-151 74 -151 175v36h44v-39c0 -75 29 -129 106 -129s106 54 106 129c0 168 -253 171 -253 366c0 105 46 173 149 174z
M158 -176l20 59h-14v83h40v-79l-27 -63h-19z" />
    <glyph glyph-name="uni021B" unicode="&#x21b;" horiz-adv-x="388" 
d="M217 0h-46v658h-143v42h332v-42h-143v-658zM168 -176l20 59h-14v83h40v-79l-27 -63h-19z" />
    <glyph glyph-name="uni1E03" unicode="&#x1e03;" horiz-adv-x="378" 
d="M150 827h40v-85h-40v85zM40 700h147c105 0 143 -52 143 -149v-40c0 -76 -21 -123 -92 -138c76 -15 105 -71 105 -150v-61c0 -101 -46 -162 -153 -162h-150v700zM86 391h78c82 0 120 22 120 111v45c0 73 -23 111 -98 111h-100v-267zM86 42h104c77 0 107 43 107 121v63
c0 91 -41 123 -124 123h-87v-307z" />
    <glyph glyph-name="uni1E0B" unicode="&#x1e0b;" horiz-adv-x="385" 
d="M156 827h41v-85h-41v85zM40 700h154c108 0 155 -71 155 -174v-352c0 -103 -47 -174 -155 -174h-154v700zM86 42h107c78 0 110 53 110 130v356c0 77 -33 130 -110 130h-107v-616z" />
    <glyph glyph-name="uni1E1F" unicode="&#x1e1f;" horiz-adv-x="336" 
d="M158 827h41v-85h-41v85zM86 359h181v-42h-181v-317h-46v700h266v-42h-220v-299z" />
    <glyph glyph-name="uni1E41" unicode="&#x1e41;" horiz-adv-x="505" 
d="M232 832h41v-85h-41v85zM421 622l-146 -621h-46l-148 619v-620h-41v700h66l147 -619l146 619h66v-700h-44v622z" />
    <glyph glyph-name="uni1E57" unicode="&#x1e57;" horiz-adv-x="364" 
d="M155 827h41v-85h-41v85zM40 700h145c108 0 150 -68 150 -170v-76c0 -111 -51 -166 -162 -166h-87v-288h-46v700zM86 330h87c81 0 116 36 116 121v82c0 76 -26 125 -104 125h-99v-328z" />
    <glyph glyph-name="uni1E61" unicode="&#x1e61;" horiz-adv-x="370" 
d="M170 833h41v-84h-41v84zM186 706c106 0 149 -74 149 -175v-15h-44v18c0 74 -28 130 -104 130s-104 -55 -104 -129c0 -170 253 -173 253 -366c0 -101 -44 -175 -151 -175s-151 74 -151 175v36h44v-39c0 -75 29 -129 106 -129s106 54 106 129c0 168 -253 171 -253 366
c0 105 46 173 149 174z" />
    <glyph glyph-name="uni1E6B" unicode="&#x1e6b;" horiz-adv-x="388" 
d="M171 827h41v-85h-41v85zM214 0h-46v658h-142v42h331v-42h-143v-658z" />
    <glyph glyph-name="uogonek" unicode="&#x173;" 
d="M337 700v-529c0 -72 -19 -141 -86 -168c-26 -20 -46 -58 -45 -83c2 -22 19 -32 40 -32c18 0 32 5 44 13v-28c-18 -9 -35 -13 -56 -13c-36 1 -63 16 -64 51c-1 30 20 62 48 85c-9 -1 -19 -2 -30 -2c-107 0 -150 77 -150 177v529h46v-531c0 -75 28 -133 105 -133
s105 58 105 133v531h43z" />
    <glyph glyph-name="uring" unicode="&#x16f;" 
d="M192 868c38 0 68 -28 68 -66c0 -37 -30 -66 -68 -66c-37 0 -67 29 -67 66c0 38 30 66 67 66zM192 844c-24 0 -42 -17 -42 -42c0 -24 18 -42 42 -42s43 18 43 42c0 25 -19 42 -43 42zM337 700v-529c0 -100 -42 -177 -149 -177s-150 77 -150 177v529h46v-531
c0 -75 28 -133 105 -133s105 58 105 133v531h43z" />
    <glyph glyph-name="utilde" unicode="&#x169;" 
d="M273 816l25 -16c-12 -29 -32 -47 -58 -48c-37 -1 -61 34 -93 34c-19 0 -32 -11 -42 -31l-25 17c14 30 36 47 63 47c38 1 63 -34 93 -33c17 1 29 13 37 30zM337 700v-529c0 -100 -42 -177 -149 -177s-150 77 -150 177v529h46v-531c0 -75 28 -133 105 -133s105 58 105 133
v531h43z" />
    <glyph glyph-name="v" unicode="v" horiz-adv-x="434" 
d="M30 700h47l142 -647l142 647h43l-152 -700h-68z" />
    <glyph glyph-name="w" unicode="w" horiz-adv-x="603" 
d="M306 573l-98 -573h-64l-113 700h45l105 -638l102 635h49l98 -633l101 636h41l-112 -700h-60z" />
    <glyph glyph-name="wacute" unicode="&#x1e83;" horiz-adv-x="603" 
d="M335 836h47l-84 -95h-35zM306 573l-98 -573h-64l-113 700h45l105 -638l102 635h49l98 -633l101 636h41l-112 -700h-60z" />
    <glyph glyph-name="wcircumflex" unicode="&#x175;" horiz-adv-x="603" 
d="M304 807l-61 -64h-43l84 90h40l84 -90h-43zM306 573l-98 -573h-64l-113 700h45l105 -638l102 635h49l98 -633l101 636h41l-112 -700h-60z" />
    <glyph glyph-name="wdieresis" unicode="&#x1e85;" horiz-adv-x="603" 
d="M236 830h41v-85h-41v85zM333 830h41v-85h-41v85zM306 573l-98 -573h-64l-113 700h45l105 -638l102 635h49l98 -633l101 636h41l-112 -700h-60z" />
    <glyph glyph-name="wgrave" unicode="&#x1e81;" horiz-adv-x="603" 
d="M229 842h50l71 -95h-36zM306 573l-98 -573h-64l-113 700h45l105 -638l102 635h49l98 -633l101 636h41l-112 -700h-60z" />
    <glyph glyph-name="x" unicode="x" horiz-adv-x="440" 
d="M360 0l-142 326l-142 -326h-45l158 363l-147 337h48l132 -301l133 301h44l-147 -337l157 -363h-49z" />
    <glyph glyph-name="y" unicode="y" horiz-adv-x="415" 
d="M184 0v269l-157 431h48l134 -368l134 368h45l-158 -431v-269h-46z" />
    <glyph glyph-name="yacute" unicode="&#xfd;" horiz-adv-x="415" 
d="M247 835h47l-84 -95h-35zM184 0v269l-157 431h48l134 -368l134 368h45l-158 -431v-269h-46z" />
    <glyph glyph-name="ycircumflex" unicode="&#x177;" horiz-adv-x="415" 
d="M209 806l-61 -63h-43l84 90h40l84 -90h-43zM184 0v269l-157 431h48l134 -368l134 368h45l-158 -431v-269h-46z" />
    <glyph glyph-name="ydieresis" unicode="&#xff;" horiz-adv-x="415" 
d="M139 825h41v-84h-41v84zM236 825h41v-84h-41v84zM184 0v269l-157 431h48l134 -368l134 368h45l-158 -431v-269h-46z" />
    <glyph glyph-name="ygrave" unicode="&#x1ef3;" horiz-adv-x="415" 
d="M127 842h49l72 -95h-37zM184 0v269l-157 431h48l134 -368l134 368h45l-158 -431v-269h-46z" />
    <glyph glyph-name="z" unicode="z" horiz-adv-x="388" 
d="M349 42v-42h-315v42l271 616h-258v42h306v-43l-271 -615h267z" />
    <glyph glyph-name="zacute" unicode="&#x17a;" horiz-adv-x="388" 
d="M242 842h48l-84 -95h-35zM349 42v-42h-315v42l271 616h-258v42h306v-43l-271 -615h267z" />
    <glyph glyph-name="zcaron" unicode="&#x17e;" horiz-adv-x="388" 
d="M97 835h42l62 -63l61 63h43l-84 -90h-40zM349 42v-42h-315v42l271 616h-258v42h306v-43l-271 -615h267z" />
    <glyph glyph-name="zdotaccent" unicode="&#x17c;" horiz-adv-x="388" 
d="M187 830h41v-84h-41v84zM349 42v-42h-315v42l271 616h-258v42h306v-43l-271 -615h267z" />
    <glyph glyph-name="ordfeminine" unicode="&#xaa;" horiz-adv-x="273" 
d="M146 705c67 0 88 -46 88 -109v-260h-27l-2 62c-13 -40 -41 -67 -85 -67c-56 0 -84 36 -84 96v3c0 96 89 115 167 116v54c0 43 -12 76 -58 76c-47 0 -64 -31 -64 -79v-12h-30v11c0 65 27 109 95 109zM203 443v78c-67 -1 -135 -20 -135 -87v-5c0 -43 20 -69 62 -69
c46 0 68 40 73 83zM38 268h196v-31h-196v31z" />
    <glyph glyph-name="ordmasculine" unicode="&#xba;" horiz-adv-x="274" 
d="M137 705c69 0 99 -48 99 -113v-151c0 -65 -30 -113 -99 -113s-99 48 -99 113v151c0 65 30 113 99 113zM137 676c-49 0 -68 -35 -68 -82v-155c0 -47 19 -82 68 -82c48 0 67 35 67 82v155c0 47 -19 82 -67 82zM39 269h197v-31h-197v31z" />
    <glyph glyph-name="uni0410" unicode="&#x410;" horiz-adv-x="436" 
d="M325 155h-218l-35 -155h-42l153 701h67l156 -701h-46zM215 648l-101 -453h204z" />
    <glyph glyph-name="uni0411" unicode="&#x411;" horiz-adv-x="387" 
d="M86 402h100c108 0 163 -44 163 -156v-79c0 -106 -46 -167 -155 -167h-154v700h283v-42h-237v-256zM86 42h108c78 0 109 43 109 122v85c0 86 -39 110 -117 110h-100v-317z" />
    <glyph glyph-name="uni0412" unicode="&#x412;" horiz-adv-x="378" 
d="M40 700h147c105 0 143 -52 143 -149v-40c0 -76 -21 -123 -92 -138c76 -15 105 -71 105 -150v-61c0 -101 -46 -162 -153 -162h-150v700zM86 391h78c82 0 120 22 120 111v45c0 73 -23 111 -98 111h-100v-267zM86 42h104c77 0 107 43 107 121v63c0 91 -41 123 -124 123h-87
v-307z" />
    <glyph glyph-name="uni0413" unicode="&#x413;" horiz-adv-x="346" 
d="M309 658h-223v-658h-46v700h269v-42z" />
    <glyph glyph-name="uni0414" unicode="&#x414;" horiz-adv-x="489" 
d="M456 -97h-46v97h-334v-97h-45v139h48c28 29 33 67 35 112l28 546h256v-658h58v-139zM185 658l-26 -504c-3 -48 -7 -84 -33 -112h225v616h-166z" />
    <glyph glyph-name="uni0415" unicode="&#x415;" horiz-adv-x="351" 
d="M86 376h191v-42h-191v-292h230v-42h-276v700h276v-42h-230v-282z" />
    <glyph glyph-name="uni0401" unicode="&#x401;" horiz-adv-x="351" 
d="M109 830h41v-85h-41v85zM206 830h41v-85h-41v85zM86 376h191v-42h-191v-292h230v-42h-276v700h276v-42h-230v-282z" />
    <glyph glyph-name="uni0416" unicode="&#x416;" horiz-adv-x="623" 
d="M547 0l-166 350l-47 -80v-270h-46v271l-46 79l-166 -350h-48l183 393l-175 307h47l205 -360v360h46v-360l205 360h48l-174 -306l181 -394h-47z" />
    <glyph glyph-name="uni0417" unicode="&#x417;" horiz-adv-x="378" 
d="M189 706c107 0 151 -75 151 -177v-18c0 -69 -34 -124 -95 -144c64 -18 95 -74 95 -142v-54c0 -102 -44 -177 -151 -177s-151 75 -151 177v58h44v-61c0 -75 29 -132 106 -132s106 56 106 136v54c0 71 -40 118 -108 118h-39v42h42c62 0 105 51 105 116v26
c0 80 -29 136 -106 136s-107 -56 -107 -132v-38h-42v36c0 101 43 176 150 176z" />
    <glyph glyph-name="uni0418" unicode="&#x418;" horiz-adv-x="391" 
d="M310 619l-105 -290l-115 -329h-50v700h42v-599l102 286l113 313h55v-700h-42v619z" />
    <glyph glyph-name="uni0419" unicode="&#x419;" horiz-adv-x="392" 
d="M271 832h31c-1 -53 -43 -85 -101 -85c-57 0 -99 31 -100 85h32c1 -39 32 -55 68 -55c37 0 68 16 70 55zM310 619l-100 -278l-120 -341h-50v700h42v-599l91 255l124 344h55v-700h-42v619z" />
    <glyph glyph-name="uni041A" unicode="&#x41a;" horiz-adv-x="404" 
d="M327 0l-193 329l-48 -76v-253h-46v700h46v-370l228 370h48l-200 -326l213 -374h-48z" />
    <glyph glyph-name="uni041B" unicode="&#x41b;" horiz-adv-x="438" 
d="M350 658h-171l-18 -487c-4 -95 -20 -170 -123 -172h-9v42c79 0 84 59 86 129l21 530h261v-700h-47v658z" />
    <glyph glyph-name="uni041C" unicode="&#x41c;" horiz-adv-x="505" 
d="M421 622l-146 -621h-46l-148 619v-620h-41v700h66l147 -619l146 619h66v-700h-44v622z" />
    <glyph glyph-name="uni041D" unicode="&#x41d;" horiz-adv-x="391" 
d="M304 329h-218v-329h-46v700h46v-329h218v329h47v-700h-47v329z" />
    <glyph glyph-name="uni041E" unicode="&#x41e;" horiz-adv-x="381" 
d="M37 171v358c0 102 47 177 153 177c108 0 155 -75 155 -177v-358c0 -102 -47 -177 -155 -177c-106 0 -153 75 -153 177zM83 532v-364c0 -76 30 -132 107 -132c78 0 109 56 109 132v364c0 76 -31 132 -109 132c-77 0 -107 -56 -107 -132z" />
    <glyph glyph-name="uni041F" unicode="&#x41f;" horiz-adv-x="391" 
d="M304 658h-218v-658h-46v700h311v-700h-47v658z" />
    <glyph glyph-name="uni0420" unicode="&#x420;" horiz-adv-x="364" 
d="M40 700h145c108 0 150 -68 150 -170v-76c0 -111 -51 -166 -162 -166h-87v-288h-46v700zM86 330h87c81 0 116 36 116 121v82c0 76 -26 125 -104 125h-99v-328z" />
    <glyph glyph-name="uni0421" unicode="&#x421;" horiz-adv-x="374" 
d="M188 706c107 0 151 -76 151 -177v-58h-44v61c0 75 -29 132 -106 132s-106 -57 -106 -132v-364c0 -75 29 -131 106 -131s106 56 106 131v83h44v-80c0 -101 -44 -177 -151 -177s-151 76 -151 177v358c0 101 44 177 151 177z" />
    <glyph glyph-name="uni0422" unicode="&#x422;" horiz-adv-x="388" 
d="M217 0h-46v658h-143v42h332v-42h-143v-658z" />
    <glyph glyph-name="uni0423" unicode="&#x423;" horiz-adv-x="426" 
d="M398 700l-181 -570c-23 -84 -52 -134 -154 -130v41c64 -1 87 27 104 82l29 85l-168 492h47l82 -247l61 -187l56 188l76 246h48z" />
    <glyph glyph-name="uni0424" unicode="&#x424;" horiz-adv-x="556" 
d="M300 619h57c114 0 161 -65 161 -176v-191c0 -111 -47 -176 -161 -176h-57v-76h-45v76h-57c-115 0 -161 65 -161 176v191c0 111 46 176 161 176h57v81h45v-81zM255 578h-57c-84 0 -116 -48 -116 -132v-197c0 -84 32 -132 116 -132h57v461zM300 117h57c83 0 116 48 116 132
v197c0 84 -32 132 -116 132h-57v-461z" />
    <glyph glyph-name="uni0425" unicode="&#x425;" horiz-adv-x="440" 
d="M360 0l-142 326l-142 -326h-45l158 363l-147 337h48l132 -301l133 301h44l-147 -337l157 -363h-49z" />
    <glyph glyph-name="uni0427" unicode="&#x427;" horiz-adv-x="387" 
d="M301 0v336c-26 -45 -69 -69 -123 -69c-99 0 -141 77 -141 171v262h46v-259c0 -72 33 -132 108 -132c58 0 95 32 110 91v300h46v-700h-46z" />
    <glyph glyph-name="uni0426" unicode="&#x426;" horiz-adv-x="455" 
d="M421 -94h-45v94h-323v700h45v-658h218v658h47v-658h58v-136z" />
    <glyph glyph-name="uni0428" unicode="&#x428;" horiz-adv-x="564" 
d="M40 700h46v-658h173v658h46v-658h173v658h46v-700h-484v700z" />
    <glyph glyph-name="uni0429" unicode="&#x429;" horiz-adv-x="615" 
d="M582 -94h-45v94h-497v700h46v-658h172v658h46v-658h174l-1 658h46v-658h59v-136z" />
    <glyph glyph-name="uni042F" unicode="&#x42f;" horiz-adv-x="386" 
d="M300 313h-73c-80 0 -131 -26 -131 -119v-110c0 -38 -3 -63 -15 -84h-48c15 23 17 55 17 84v109c0 76 29 127 101 143c-69 16 -101 63 -101 145v61c0 99 43 158 150 158h146v-700h-46v313zM300 658h-99c-76 0 -105 -45 -105 -120v-66c0 -94 48 -117 130 -117h74v303z" />
    <glyph glyph-name="uni042C" unicode="&#x42c;" horiz-adv-x="370" 
d="M86 412h86c112 0 163 -55 163 -166v-76c0 -102 -42 -170 -151 -170h-144v700h46v-288zM86 42h98c78 0 105 49 105 125v82c0 85 -36 121 -117 121h-86v-328z" />
    <glyph glyph-name="uni042A" unicode="&#x42a;" horiz-adv-x="435" 
d="M151 412h87c111 0 162 -55 162 -166v-76c0 -102 -42 -170 -150 -170h-145v658h-95v42h141v-288zM151 42h99c78 0 104 49 104 125v82c0 85 -36 121 -116 121h-87v-328z" />
    <glyph glyph-name="uni042B" unicode="&#x42b;" horiz-adv-x="487" 
d="M86 412h86c112 0 163 -55 163 -166v-76c0 -102 -42 -170 -151 -170h-144v700h46v-288zM401 700h46v-700h-46v700zM86 42h98c78 0 105 49 105 125v82c0 85 -36 121 -117 121h-86v-328z" />
    <glyph glyph-name="uni042D" unicode="&#x42d;" horiz-adv-x="374" 
d="M186 706c106 0 151 -76 151 -177v-358c0 -101 -45 -177 -151 -177c-107 0 -151 76 -151 177v68h44v-71c0 -75 29 -131 105 -131c78 0 107 56 107 131v173h-143v42h143v149c0 75 -29 132 -107 132c-76 0 -105 -57 -105 -132v-47h-43v44c0 101 43 177 150 177z" />
    <glyph glyph-name="uni042E" unicode="&#x42e;" horiz-adv-x="552" 
d="M361 706c107 0 154 -75 154 -177v-358c0 -102 -47 -177 -154 -177c-108 0 -154 75 -154 177v158h-121v-329h-46v700h46v-329h121v158c0 102 46 177 154 177zM361 664c-78 0 -108 -56 -108 -132v-364c0 -76 30 -132 108 -132c77 0 108 56 108 132v364
c0 76 -31 132 -108 132z" />
    <glyph glyph-name="uni0430" unicode="&#x430;" horiz-adv-x="436" 
d="M325 155h-218l-35 -155h-42l153 701h67l156 -701h-46zM215 648l-101 -453h204z" />
    <glyph glyph-name="uni0431" unicode="&#x431;" horiz-adv-x="387" 
d="M86 402h100c108 0 163 -44 163 -156v-79c0 -106 -46 -167 -155 -167h-154v700h283v-42h-237v-256zM86 42h108c78 0 109 43 109 122v85c0 86 -39 110 -117 110h-100v-317z" />
    <glyph glyph-name="uni0432" unicode="&#x432;" horiz-adv-x="378" 
d="M40 700h147c105 0 143 -52 143 -149v-40c0 -76 -21 -123 -92 -138c76 -15 105 -71 105 -150v-61c0 -101 -46 -162 -153 -162h-150v700zM86 391h78c82 0 120 22 120 111v45c0 73 -23 111 -98 111h-100v-267zM86 42h104c77 0 107 43 107 121v63c0 91 -41 123 -124 123h-87
v-307z" />
    <glyph glyph-name="uni0433" unicode="&#x433;" horiz-adv-x="346" 
d="M309 658h-223v-658h-46v700h269v-42z" />
    <glyph glyph-name="uni0434" unicode="&#x434;" horiz-adv-x="489" 
d="M456 -97h-46v97h-334v-97h-45v139h48c28 29 33 67 35 112l28 546h256v-658h58v-139zM185 658l-26 -504c-3 -48 -7 -84 -33 -112h225v616h-166z" />
    <glyph glyph-name="uni0435" unicode="&#x435;" horiz-adv-x="351" 
d="M86 376h191v-42h-191v-292h230v-42h-276v700h276v-42h-230v-282z" />
    <glyph glyph-name="uni0451" unicode="&#x451;" horiz-adv-x="351" 
d="M109 830h41v-85h-41v85zM206 830h41v-85h-41v85zM86 376h191v-42h-191v-292h230v-42h-276v700h276v-42h-230v-282z" />
    <glyph glyph-name="uni0436" unicode="&#x436;" horiz-adv-x="623" 
d="M547 0l-166 350l-47 -80v-270h-46v271l-46 79l-166 -350h-48l183 393l-175 307h47l205 -360v360h46v-360l205 360h48l-174 -306l181 -394h-47z" />
    <glyph glyph-name="uni0437" unicode="&#x437;" horiz-adv-x="378" 
d="M189 706c107 0 151 -75 151 -177v-18c0 -69 -34 -124 -95 -144c64 -18 95 -74 95 -142v-54c0 -102 -44 -177 -151 -177s-151 75 -151 177v58h44v-61c0 -75 29 -132 106 -132s106 56 106 136v54c0 71 -40 118 -108 118h-39v42h42c62 0 105 51 105 116v26
c0 80 -29 136 -106 136s-107 -56 -107 -132v-38h-42v36c0 101 43 176 150 176z" />
    <glyph glyph-name="uni0438" unicode="&#x438;" horiz-adv-x="391" 
d="M310 619l-106 -294l-114 -325h-50v700h42v-599l81 231l134 368h55v-700h-42v619z" />
    <glyph glyph-name="uni0439" unicode="&#x439;" horiz-adv-x="392" 
d="M271 830h31c-1 -54 -43 -85 -101 -85c-57 0 -99 31 -100 85h32c1 -40 32 -56 68 -56c37 0 68 16 70 56zM310 619l-220 -619h-50v700h42v-599l88 249l127 350h55v-700h-42v619z" />
    <glyph glyph-name="uni043A" unicode="&#x43a;" horiz-adv-x="404" 
d="M327 0l-193 329l-48 -76v-253h-46v700h46v-370l228 370h48l-200 -326l213 -374h-48z" />
    <glyph glyph-name="uni043B" unicode="&#x43b;" horiz-adv-x="438" 
d="M350 658h-171l-18 -487c-4 -95 -20 -170 -123 -172h-9v42c79 0 84 59 86 129l21 530h261v-700h-47v658z" />
    <glyph glyph-name="uni043C" unicode="&#x43c;" horiz-adv-x="505" 
d="M421 622l-146 -621h-46l-148 619v-620h-41v700h66l147 -619l146 619h66v-700h-44v622z" />
    <glyph glyph-name="uni043D" unicode="&#x43d;" horiz-adv-x="391" 
d="M304 329h-218v-329h-46v700h46v-329h218v329h47v-700h-47v329z" />
    <glyph glyph-name="uni043E" unicode="&#x43e;" horiz-adv-x="381" 
d="M37 171v358c0 102 47 177 153 177c108 0 155 -75 155 -177v-358c0 -102 -47 -177 -155 -177c-106 0 -153 75 -153 177zM83 532v-364c0 -76 30 -132 107 -132c78 0 109 56 109 132v364c0 76 -31 132 -109 132c-77 0 -107 -56 -107 -132z" />
    <glyph glyph-name="uni043F" unicode="&#x43f;" horiz-adv-x="391" 
d="M304 658h-218v-658h-46v700h311v-700h-47v658z" />
    <glyph glyph-name="uni0440" unicode="&#x440;" horiz-adv-x="364" 
d="M40 700h145c108 0 150 -68 150 -170v-76c0 -111 -51 -166 -162 -166h-87v-288h-46v700zM86 330h87c81 0 116 36 116 121v82c0 76 -26 125 -104 125h-99v-328z" />
    <glyph glyph-name="uni0441" unicode="&#x441;" horiz-adv-x="374" 
d="M188 706c107 0 151 -76 151 -177v-58h-44v61c0 75 -29 132 -106 132s-106 -57 -106 -132v-364c0 -75 29 -131 106 -131s106 56 106 131v83h44v-80c0 -101 -44 -177 -151 -177s-151 76 -151 177v358c0 101 44 177 151 177z" />
    <glyph glyph-name="uni0442" unicode="&#x442;" horiz-adv-x="388" 
d="M217 0h-46v658h-143v42h332v-42h-143v-658z" />
    <glyph glyph-name="uni0443" unicode="&#x443;" horiz-adv-x="426" 
d="M398 700l-181 -570c-23 -84 -52 -134 -154 -130v41c64 -1 87 27 104 82l29 85l-168 492h47l82 -247l61 -187l56 188l76 246h48z" />
    <glyph glyph-name="uni0444" unicode="&#x444;" horiz-adv-x="556" 
d="M300 619h57c114 0 161 -65 161 -176v-191c0 -111 -47 -176 -161 -176h-57v-76h-45v76h-57c-115 0 -161 65 -161 176v191c0 111 46 176 161 176h57v81h45v-81zM255 578h-57c-84 0 -116 -48 -116 -132v-197c0 -84 32 -132 116 -132h57v461zM300 117h57c83 0 116 48 116 132
v197c0 84 -32 132 -116 132h-57v-461z" />
    <glyph glyph-name="uni0445" unicode="&#x445;" horiz-adv-x="440" 
d="M360 0l-142 326l-142 -326h-45l158 363l-147 337h48l132 -301l133 301h44l-147 -337l157 -363h-49z" />
    <glyph glyph-name="uni0447" unicode="&#x447;" horiz-adv-x="387" 
d="M301 0v336c-26 -45 -69 -69 -123 -69c-99 0 -141 77 -141 171v262h46v-259c0 -72 33 -132 108 -132c58 0 95 32 110 91v300h46v-700h-46z" />
    <glyph glyph-name="uni0446" unicode="&#x446;" horiz-adv-x="455" 
d="M421 -94h-45v94h-323v700h45v-658h218v658h47v-658h58v-136z" />
    <glyph glyph-name="uni0448" unicode="&#x448;" horiz-adv-x="564" 
d="M40 700h46v-658h173v658h46v-658h173v658h46v-700h-484v700z" />
    <glyph glyph-name="uni0449" unicode="&#x449;" horiz-adv-x="615" 
d="M582 -94h-45v94h-497v700h46v-658h172v658h46v-658h174l-1 658h46v-658h59v-136z" />
    <glyph glyph-name="uni044C" unicode="&#x44c;" horiz-adv-x="370" 
d="M86 412h86c112 0 163 -55 163 -166v-76c0 -102 -42 -170 -151 -170h-144v700h46v-288zM86 42h98c78 0 105 49 105 125v82c0 85 -36 121 -117 121h-86v-328z" />
    <glyph glyph-name="uni044A" unicode="&#x44a;" horiz-adv-x="435" 
d="M151 412h87c111 0 162 -55 162 -166v-76c0 -102 -42 -170 -150 -170h-145v658h-95v42h141v-288zM151 42h99c78 0 104 49 104 125v82c0 85 -36 121 -116 121h-87v-328z" />
    <glyph glyph-name="uni044B" unicode="&#x44b;" horiz-adv-x="487" 
d="M86 412h86c112 0 163 -55 163 -166v-76c0 -102 -42 -170 -151 -170h-144v700h46v-288zM401 700h46v-700h-46v700zM86 42h98c78 0 105 49 105 125v82c0 85 -36 121 -117 121h-86v-328z" />
    <glyph glyph-name="uni044D" unicode="&#x44d;" horiz-adv-x="374" 
d="M186 706c106 0 151 -76 151 -177v-358c0 -101 -45 -177 -151 -177c-107 0 -151 76 -151 177v68h44v-71c0 -75 29 -131 105 -131c78 0 107 56 107 131v173h-143v42h143v149c0 75 -29 132 -107 132c-76 0 -105 -57 -105 -132v-47h-43v44c0 101 43 177 150 177z" />
    <glyph glyph-name="uni044E" unicode="&#x44e;" horiz-adv-x="552" 
d="M361 706c107 0 154 -75 154 -177v-358c0 -102 -47 -177 -154 -177c-108 0 -154 75 -154 177v158h-121v-329h-46v700h46v-329h121v158c0 102 46 177 154 177zM361 664c-78 0 -108 -56 -108 -132v-364c0 -76 30 -132 108 -132c77 0 108 56 108 132v364
c0 76 -31 132 -108 132z" />
    <glyph glyph-name="uni044F" unicode="&#x44f;" horiz-adv-x="386" 
d="M300 313h-73c-80 0 -131 -26 -131 -119v-110c0 -38 -3 -63 -15 -84h-48c15 23 17 55 17 84v109c0 76 29 127 101 143c-69 16 -101 63 -101 145v61c0 99 43 158 150 158h146v-700h-46v313zM300 658h-99c-76 0 -105 -45 -105 -120v-66c0 -94 48 -117 130 -117h74v303z" />
    <glyph glyph-name="zero" unicode="0" horiz-adv-x="381" 
d="M37 171v358c0 103 47 177 154 177s154 -74 154 -177v-358c0 -102 -47 -177 -154 -177s-154 75 -154 177zM83 532v-363c0 -77 31 -133 108 -133s108 56 108 133v363c0 76 -31 132 -108 132s-108 -56 -108 -132z" />
    <glyph glyph-name="one" unicode="1" horiz-adv-x="281" 
d="M173 0v622c-25 -33 -62 -55 -109 -59v40c69 5 101 46 119 98h36v-701h-46z" />
    <glyph glyph-name="two" unicode="2" horiz-adv-x="377" 
d="M191 706c109 0 151 -76 151 -178c0 -202 -253 -272 -256 -478v-8h250v-42h-296v34c0 247 256 300 256 492c0 81 -27 138 -107 138c-77 0 -105 -60 -105 -135v-48h-44v45c0 101 43 180 151 180z" />
    <glyph glyph-name="three" unicode="3" horiz-adv-x="378" 
d="M189 706c107 0 151 -75 151 -177v-17c0 -69 -33 -124 -93 -145c63 -19 93 -73 93 -142v-54c0 -102 -44 -177 -151 -177s-151 75 -151 177v40h44v-42c0 -76 29 -133 106 -133s106 56 106 136v54c0 73 -36 115 -104 118h-47v42h49c63 4 102 50 102 117v25
c0 80 -29 136 -106 136s-106 -56 -106 -132v-28h-44v25c0 102 44 177 151 177z" />
    <glyph glyph-name="four" unicode="4" horiz-adv-x="403" 
d="M374 155h-59v-155h-45v155h-239v43l232 503h52v-504h59v-42zM270 615l-197 -418h197v418z" />
    <glyph glyph-name="five" unicode="5" horiz-adv-x="378" 
d="M105 658l-13 -250c24 38 61 54 113 54c97 0 136 -74 136 -171v-120c0 -101 -45 -177 -152 -177c-106 0 -151 76 -151 177v38h44v-40c0 -75 30 -132 106 -132c77 0 107 57 107 132v118c0 75 -30 132 -107 132c-51 0 -86 -28 -100 -80v-12h-43l18 374h263v-43h-221z" />
    <glyph glyph-name="six" unicode="6" horiz-adv-x="382" 
d="M192 706c107 0 151 -72 151 -174v-8h-44v11c0 75 -29 129 -106 129c-79 0 -110 -56 -110 -138v-162c23 39 62 64 125 64c98 0 138 -73 138 -171v-86c0 -102 -47 -177 -154 -177c-108 0 -155 75 -155 177v356c0 105 46 179 155 179zM192 385c-78 0 -109 -56 -109 -131v-85
c0 -77 31 -132 109 -132c77 0 108 55 108 132v85c0 75 -31 131 -108 131z" />
    <glyph glyph-name="seven" unicode="7" horiz-adv-x="378" 
d="M97 0l197 658h-257v43h304v-42l-197 -659h-47z" />
    <glyph glyph-name="eight" unicode="8" horiz-adv-x="388" 
d="M194 706c105 0 159 -66 159 -170v-22c0 -72 -27 -129 -93 -147c68 -20 93 -77 93 -150v-50c0 -103 -52 -173 -159 -173c-108 0 -159 70 -159 173v50c0 74 24 129 94 150c-68 19 -94 73 -94 147v22c0 104 53 170 159 170zM194 664c-75 0 -113 -47 -113 -129v-29
c0 -79 39 -120 113 -120s113 41 113 120v29c0 82 -39 129 -113 129zM194 344c-77 0 -113 -41 -113 -123v-53c0 -81 37 -132 113 -132s112 51 113 132v53c0 82 -37 123 -113 123z" />
    <glyph glyph-name="nine" unicode="9" horiz-adv-x="382" 
d="M190 707c108 0 154 -75 154 -178v-356c0 -104 -45 -179 -154 -179c-107 0 -153 73 -153 175v9h44v-11c0 -76 31 -131 108 -131c78 0 109 56 109 139v172c-22 -52 -62 -74 -124 -74c-98 0 -138 72 -138 171v85c0 103 47 178 154 178zM190 664c-77 0 -108 -56 -108 -132
v-85c0 -76 31 -132 108 -132s108 56 108 132v85c0 76 -31 132 -108 132z" />
    <glyph glyph-name="zero.alt" horiz-adv-x="381" 
d="M37 171v358c0 103 47 177 154 177s154 -74 154 -177v-358c0 -102 -47 -177 -154 -177s-154 75 -154 177zM83 532v-363c0 -77 31 -133 108 -133s108 56 108 133v363c0 76 -31 132 -108 132s-108 -56 -108 -132z" />
    <glyph glyph-name="one.alt" horiz-adv-x="281" 
d="M137 0v622c-25 -33 -62 -55 -109 -59v40c69 5 101 46 119 98h36v-701h-46z" />
    <glyph glyph-name="two.alt" horiz-adv-x="368" 
d="M186 706c109 0 151 -76 151 -178c0 -203 -253 -271 -256 -480v-6h250v-42h-296v34c0 247 256 300 256 492c0 81 -27 138 -107 138c-77 0 -105 -60 -105 -135v-48h-44v45c0 101 43 180 151 180z" />
    <glyph glyph-name="three.alt" horiz-adv-x="373" 
d="M187 706c107 0 151 -75 151 -177v-17c0 -69 -34 -124 -94 -145c63 -19 94 -73 94 -142v-54c0 -102 -44 -177 -151 -177c-108 0 -152 75 -152 177v40h44v-42c0 -76 29 -133 106 -133c78 0 107 56 107 136v54c0 73 -36 115 -104 118h-48v42h50c63 4 102 50 102 117v25
c0 80 -29 136 -107 136c-77 0 -106 -56 -106 -132v-28h-44v25c0 102 44 177 152 177z" />
    <glyph glyph-name="four.alt" horiz-adv-x="403" 
d="M374 155h-59v-155h-46v155h-238v43l232 503h52v-504h59v-42zM269 614l-196 -417h196v417z" />
    <glyph glyph-name="five.alt" horiz-adv-x="373" 
d="M102 658l-13 -251c24 37 62 55 113 55c97 0 136 -74 136 -171v-120c0 -101 -44 -177 -151 -177s-151 76 -151 177v38h44v-40c0 -75 29 -132 106 -132c76 0 106 57 106 132v118c0 75 -30 132 -106 132c-51 0 -87 -28 -100 -80v-12h-44l19 374h262v-43h-221z" />
    <glyph glyph-name="six.alt" horiz-adv-x="382" 
d="M192 706c107 0 151 -72 151 -174v-8h-44v11c0 75 -29 129 -106 129c-79 0 -110 -56 -110 -138v-162c23 39 62 64 125 64c98 0 138 -73 138 -171v-86c0 -102 -47 -177 -154 -177c-108 0 -155 75 -155 177v356c0 105 46 179 155 179zM192 385c-78 0 -109 -56 -109 -131v-85
c0 -77 31 -132 109 -132c77 0 108 55 108 132v85c0 75 -31 131 -108 131z" />
    <glyph glyph-name="seven.alt" horiz-adv-x="358" 
d="M89 0l193 658h-253v43h300v-42l-193 -659h-47z" />
    <glyph glyph-name="eight.alt" horiz-adv-x="388" 
d="M194 706c106 0 159 -66 159 -170v-22c0 -72 -27 -129 -92 -147c68 -20 92 -77 92 -150v-50c0 -103 -51 -173 -159 -173c-107 0 -159 70 -159 173v50c0 74 25 129 94 150c-67 19 -94 73 -94 147v22c0 104 54 170 159 170zM194 664c-74 0 -113 -47 -113 -129v-29
c0 -79 39 -120 113 -120s113 41 113 120v29c0 82 -38 129 -113 129zM194 344c-76 0 -113 -41 -113 -123v-53c0 -81 37 -132 113 -132s113 51 113 132v53c0 82 -36 123 -113 123z" />
    <glyph glyph-name="nine.alt" horiz-adv-x="382" 
d="M190 707c108 0 154 -75 154 -178v-356c0 -104 -45 -179 -154 -179c-107 0 -153 73 -153 175v9h44v-11c0 -76 31 -131 108 -131c78 0 109 56 109 139v172c-22 -52 -62 -74 -124 -74c-98 0 -138 72 -138 171v85c0 103 47 178 154 178zM190 664c-77 0 -108 -56 -108 -132
v-85c0 -76 31 -132 108 -132s108 56 108 132v85c0 76 -31 132 -108 132z" />
    <glyph glyph-name="fraction" unicode="&#x2044;" horiz-adv-x="258" 
d="M252 700h30l-276 -700h-30z" />
    <glyph glyph-name="onehalf" unicode="&#xbd;" horiz-adv-x="573" 
d="M116 256v393c-16 -18 -39 -31 -66 -34l-1 25c42 2 63 27 74 60h25v-444h-32zM378 700h30l-276 -700h-30zM439 449c71 0 97 -49 97 -114c0 -128 -159 -170 -162 -301v-5h157v-29h-189v23c0 156 163 189 163 311c0 50 -17 86 -66 86s-67 -37 -67 -85v-30h-30v29
c0 65 28 115 97 115z" />
    <glyph glyph-name="uni2153" unicode="&#x2153;" horiz-adv-x="566" 
d="M116 256v393c-16 -18 -39 -31 -66 -34l-1 25c42 2 63 27 74 60h25v-444h-32zM378 700h30l-276 -700h-30zM431 449c68 0 97 -48 97 -113v-11c0 -43 -19 -78 -56 -92c38 -14 56 -48 56 -90v-35c0 -65 -29 -113 -97 -113c-69 0 -97 48 -97 113v25h30v-27
c0 -47 18 -82 66 -82s66 35 66 85v34c0 44 -23 73 -65 73h-30v29h31c39 0 65 34 64 74v16c0 50 -18 85 -66 85s-66 -36 -66 -82v-18h-30v16c0 65 28 113 97 113z" />
    <glyph glyph-name="uni2154" unicode="&#x2154;" horiz-adv-x="610" 
d="M138 705c70 0 97 -49 97 -114c0 -129 -161 -173 -163 -302v-4h158v-29h-189v22c0 157 162 190 162 312c0 50 -17 86 -66 86s-66 -38 -66 -85v-30h-30v29c0 65 27 115 97 115zM459 700l-276 -700h-29l276 700h29zM474 449c69 0 97 -48 97 -113v-11c0 -43 -19 -78 -56 -92
c39 -14 56 -48 56 -90v-35c0 -65 -28 -113 -97 -113s-97 48 -97 113v25h30v-27c0 -47 18 -82 66 -82c49 0 67 35 67 85v34c0 44 -23 73 -65 73h-30v29h31c39 0 64 34 64 74v16c0 50 -18 85 -67 85c-48 0 -66 -36 -66 -82v-18h-30v16c0 65 28 113 97 113z" />
    <glyph glyph-name="onequarter" unicode="&#xbc;" horiz-adv-x="528" 
d="M116 256v393c-16 -18 -39 -31 -66 -34l-1 25c42 2 63 27 74 60h25v-444h-32zM418 700l-276 -700h-29l276 700h29zM459 96v-96h-31v96h-152v29l147 319h36v-319h36v-29h-36zM306 125h122v259z" />
    <glyph glyph-name="threequarters" unicode="&#xbe;" horiz-adv-x="578" 
d="M136 705c68 0 96 -48 96 -113v-11c0 -43 -18 -78 -56 -92c39 -14 56 -48 56 -90v-35c0 -65 -28 -113 -96 -113c-69 0 -97 48 -97 113v25h30v-27c0 -47 18 -82 66 -82s66 35 66 85v34c0 44 -23 73 -65 73h-30v29h31c39 0 65 34 64 74v16c0 50 -18 85 -66 85
s-66 -36 -66 -82v-18h-30v16c0 65 28 113 97 113zM166 0l276 700h30l-276 -700h-30zM477 0v96h-151v29l147 319h36v-319h36v-29h-36v-96h-32zM477 384l-121 -259h121v259z" />
    <glyph glyph-name="oneeighth" unicode="&#x215b;" horiz-adv-x="576" 
d="M116 256v393c-16 -18 -39 -31 -66 -34l-1 25c42 2 63 27 74 60h25v-444h-32zM132 0h-30l276 700h30zM437 449c68 0 102 -44 102 -109v-14c0 -44 -15 -79 -54 -94c40 -14 54 -51 54 -95v-31c0 -66 -33 -111 -102 -111s-102 45 -102 111v31c0 44 14 81 54 95
c-39 15 -54 50 -54 94v14c0 65 35 109 102 109zM437 420c-46 0 -70 -30 -70 -81v-18c0 -50 23 -75 70 -75c46 0 70 25 70 75v18c0 51 -24 81 -70 81zM437 217c-48 0 -70 -26 -70 -77v-34c0 -51 22 -82 70 -82s70 31 70 82v34c0 51 -22 77 -70 77z" />
    <glyph glyph-name="threeeighths" unicode="&#x215c;" horiz-adv-x="626" 
d="M136 705c68 0 96 -48 96 -113v-11c0 -43 -18 -78 -56 -92c39 -14 56 -48 56 -90v-35c0 -65 -28 -113 -96 -113c-69 0 -97 48 -97 113v25h30v-27c0 -47 18 -82 66 -82s66 35 66 85v34c0 44 -23 73 -65 73h-30v29h31c39 0 65 34 64 74v16c0 50 -18 85 -66 85
s-66 -36 -66 -82v-18h-30v16c0 65 28 113 97 113zM432 700h30l-276 -700h-30zM487 449c67 0 102 -44 102 -109v-14c0 -44 -15 -79 -54 -94c40 -14 54 -51 54 -95v-31c0 -66 -33 -111 -102 -111s-102 45 -102 111v31c0 44 14 81 54 95c-39 15 -54 50 -54 94v14
c0 65 35 109 102 109zM487 420c-46 0 -70 -30 -70 -81v-18c0 -50 23 -75 70 -75c46 0 70 25 70 75v18c0 51 -24 81 -70 81zM487 217c-48 0 -70 -26 -70 -77v-34c0 -51 22 -82 70 -82s70 31 70 82v34c0 51 -22 77 -70 77z" />
    <glyph glyph-name="fiveeighths" unicode="&#x215d;" horiz-adv-x="624" 
d="M83 670l-7 -160c15 25 40 38 70 38c61 0 87 -47 87 -110v-76c0 -64 -29 -113 -97 -113s-97 49 -97 113v24h30v-25c0 -47 19 -82 66 -82c48 0 66 35 66 82v75c0 47 -18 82 -66 82c-28 0 -56 -17 -61 -49v-8h-31l12 239h167v-30h-139zM155 0l276 700h30l-276 -700h-30z
M486 449c67 0 102 -44 102 -109v-14c0 -44 -16 -79 -54 -94c39 -14 54 -51 54 -95v-31c0 -66 -34 -111 -102 -111c-69 0 -102 45 -102 111v31c0 44 14 81 54 95c-39 15 -54 50 -54 94v14c0 65 34 109 102 109zM486 420c-47 0 -71 -30 -71 -81v-18c0 -50 24 -75 71 -75
c45 0 70 25 70 75v18c0 51 -24 81 -70 81zM486 217c-48 0 -71 -26 -71 -77v-34c0 -51 23 -82 71 -82c47 0 70 31 70 82v34c0 51 -22 77 -70 77z" />
    <glyph glyph-name="seveneighths" unicode="&#x215e;" horiz-adv-x="561" 
d="M75 256l125 415h-162v29h194v-28l-125 -416h-32zM387 700l-276 -700h-30l276 700h30zM422 449c68 0 102 -44 102 -109v-14c0 -44 -15 -79 -54 -94c40 -14 54 -51 54 -95v-31c0 -66 -33 -111 -102 -111c-68 0 -102 45 -102 111v31c0 44 15 81 54 95c-38 15 -54 50 -54 94
v14c0 65 35 109 102 109zM422 420c-46 0 -70 -30 -70 -81v-18c0 -50 24 -75 70 -75s71 25 71 75v18c0 51 -24 81 -71 81zM422 217c-48 0 -70 -26 -70 -77v-34c0 -51 23 -82 70 -82c48 0 71 31 71 82v34c0 51 -23 77 -71 77z" />
    <glyph glyph-name="zeroinferior" unicode="&#x2080;" horiz-adv-x="274" 
d="M38 43v228c0 65 30 113 99 113s99 -48 99 -113v-228c0 -65 -30 -113 -99 -113s-99 48 -99 113zM69 273v-232c0 -47 19 -82 68 -82c48 0 67 35 67 82v232c0 47 -19 82 -67 82c-49 0 -68 -35 -68 -82z" />
    <glyph glyph-name="oneinferior" unicode="&#x2081;" horiz-adv-x="178" 
d="M102 -65v393c-16 -18 -39 -31 -67 -34v25c42 2 62 27 74 60h25v-444h-32z" />
    <glyph glyph-name="twoinferior" unicode="&#x2082;" horiz-adv-x="271" 
d="M138 384c70 0 97 -49 97 -114c0 -129 -162 -172 -163 -302v-4h158v-29h-189v23c0 156 162 189 162 311c0 50 -17 86 -66 86s-66 -37 -66 -85v-30h-30v29c0 65 27 115 97 115z" />
    <glyph glyph-name="threeinferior" unicode="&#x2083;" horiz-adv-x="271" 
d="M136 384c68 0 96 -48 96 -113v-11c0 -43 -18 -79 -56 -93c38 -12 56 -47 56 -89v-35c0 -65 -28 -113 -96 -113c-69 0 -97 48 -97 113v25h30v-27c0 -47 18 -82 66 -82s66 35 66 85v34c0 44 -23 73 -65 73h-30v29h31c39 0 65 34 64 74v16c0 50 -18 85 -66 85
s-66 -36 -66 -82v-18h-30v16c0 65 28 113 97 113z" />
    <glyph glyph-name="fourinferior" unicode="&#x2084;" horiz-adv-x="286" 
d="M254 28h-37v-96h-31v96h-152v29l148 319h35v-319h37v-29zM186 316l-122 -259h122v259z" />
    <glyph glyph-name="fiveinferior" unicode="&#x2085;" horiz-adv-x="271" 
d="M69 69v-26c0 -47 19 -82 66 -82c48 0 66 35 66 82v75c0 47 -18 83 -66 83c-28 0 -56 -18 -61 -50v-7h-31l12 238h167v-30h-139l-7 -159c15 24 40 37 70 37c61 0 87 -47 87 -110v-76c0 -64 -29 -113 -97 -113s-97 49 -97 113v25h30z" />
    <glyph glyph-name="sixinferior" unicode="&#x2086;" horiz-adv-x="274" 
d="M138 384c69 0 97 -47 97 -112v-5h-30v7c0 47 -18 81 -66 81c-50 0 -69 -35 -69 -86v-112c14 33 41 50 78 50c62 0 88 -47 88 -110v-54c0 -65 -29 -113 -98 -113s-99 48 -99 113v227c0 66 28 114 99 114zM138 178c-49 0 -68 -35 -68 -83v-54c0 -47 19 -82 68 -82
c48 0 67 35 67 82v54c0 48 -19 83 -67 83z" />
    <glyph glyph-name="seveninferior" unicode="&#x2087;" horiz-adv-x="270" 
d="M75 -62l125 415h-162v29h194v-28l-125 -416h-32z" />
    <glyph glyph-name="eightinferior" unicode="&#x2088;" horiz-adv-x="277" 
d="M139 384c67 0 102 -44 102 -109v-14c0 -44 -16 -79 -54 -94c39 -14 54 -51 54 -95v-31c0 -66 -34 -111 -102 -111c-69 0 -102 45 -102 111v31c0 44 14 81 54 95c-39 15 -54 50 -54 94v14c0 65 34 109 102 109zM139 355c-47 0 -71 -30 -71 -81v-18c0 -50 24 -75 71 -75
c45 0 70 25 70 75v18c0 51 -24 81 -70 81zM139 152c-48 0 -71 -26 -71 -77v-34c0 -51 23 -82 71 -82c47 0 70 31 70 82v34c0 51 -22 77 -70 77z" />
    <glyph glyph-name="nineinferior" unicode="&#x2089;" horiz-adv-x="274" 
d="M136 384c69 0 99 -48 99 -113v-227c0 -66 -29 -114 -99 -114c-68 0 -99 47 -99 112v6h31v-8c0 -47 19 -81 67 -81c49 0 68 35 68 86v111c-13 -33 -40 -49 -77 -49c-63 0 -89 46 -89 109v55c0 65 30 113 99 113zM136 355c-48 0 -67 -35 -67 -82v-55c0 -47 19 -82 67 -82
s67 35 67 82v55c0 47 -19 82 -67 82z" />
    <glyph glyph-name="zerosuperior" unicode="&#x2070;" horiz-adv-x="274" 
d="M38 459v228c0 65 30 113 99 113s99 -48 99 -113v-228c0 -65 -30 -113 -99 -113s-99 48 -99 113zM69 689v-232c0 -47 19 -82 68 -82c48 0 67 35 67 82v232c0 47 -19 82 -67 82c-49 0 -68 -35 -68 -82z" />
    <glyph glyph-name="onesuperior" unicode="&#xb9;" horiz-adv-x="178" 
d="M35 710v25c42 2 62 27 74 60h25v-444h-32v393c-16 -18 -39 -31 -67 -34z" />
    <glyph glyph-name="twosuperior" unicode="&#xb2;" horiz-adv-x="271" 
d="M138 800c70 0 97 -49 97 -114c0 -129 -160 -171 -163 -302v-4h158v-29h-189v23c0 156 162 189 162 311c0 50 -17 86 -66 86s-66 -37 -66 -85v-30h-30v29c0 65 27 115 97 115z" />
    <glyph glyph-name="threesuperior" unicode="&#xb3;" horiz-adv-x="271" 
d="M136 800c68 0 96 -48 96 -113v-11c0 -43 -18 -78 -56 -92c39 -14 56 -48 56 -90v-35c0 -65 -28 -113 -96 -113c-69 0 -97 48 -97 113v25h30v-27c0 -47 18 -82 66 -82s66 35 66 85v34c0 44 -23 73 -65 73h-30v29h31c39 0 65 34 64 74v16c0 50 -18 85 -66 85
s-66 -36 -66 -82v-18h-30v16c0 65 28 113 97 113z" />
    <glyph glyph-name="foursuperior" unicode="&#x2074;" horiz-adv-x="286" 
d="M254 447h-37v-96h-31v96h-152v29l148 319h35v-319h37v-29zM186 735l-122 -259h122v259z" />
    <glyph glyph-name="fivesuperior" unicode="&#x2075;" horiz-adv-x="271" 
d="M69 481v-25c0 -47 19 -82 66 -82c48 0 66 35 66 82v75c0 47 -18 82 -66 82c-28 0 -56 -17 -61 -49v-8h-31l12 239h167v-30h-139l-7 -160c15 25 40 38 70 38c61 0 87 -47 87 -110v-76c0 -64 -29 -113 -97 -113s-97 49 -97 113v24h30z" />
    <glyph glyph-name="sixsuperior" unicode="&#x2076;" horiz-adv-x="274" 
d="M138 800c69 0 97 -47 97 -112v-5h-30v7c0 47 -18 81 -66 81c-50 0 -69 -35 -69 -86v-112c14 33 41 50 78 50c62 0 88 -47 88 -110v-54c0 -65 -29 -113 -98 -113s-99 48 -99 113v227c0 66 28 114 99 114zM138 594c-49 0 -68 -35 -68 -83v-54c0 -47 19 -82 68 -82
c48 0 67 35 67 82v54c0 48 -19 83 -67 83z" />
    <glyph glyph-name="sevensuperior" unicode="&#x2077;" horiz-adv-x="270" 
d="M75 351l125 415h-162v29h194v-28l-125 -416h-32z" />
    <glyph glyph-name="eightsuperior" unicode="&#x2078;" horiz-adv-x="277" 
d="M139 800c67 0 102 -44 102 -109v-14c0 -44 -16 -79 -54 -94c39 -14 54 -51 54 -95v-31c0 -66 -34 -111 -102 -111c-69 0 -102 45 -102 111v31c0 44 14 81 54 95c-39 15 -54 50 -54 94v14c0 65 34 109 102 109zM139 771c-47 0 -71 -30 -71 -81v-18c0 -50 24 -75 71 -75
c45 0 70 25 70 75v18c0 51 -24 81 -70 81zM139 568c-48 0 -71 -26 -71 -77v-34c0 -51 23 -82 71 -82c47 0 70 31 70 82v34c0 51 -22 77 -70 77z" />
    <glyph glyph-name="ninesuperior" unicode="&#x2079;" horiz-adv-x="274" 
d="M136 800c69 0 99 -48 99 -113v-227c0 -66 -29 -114 -99 -114c-68 0 -99 47 -99 112v6h31v-8c0 -47 19 -81 67 -81c49 0 68 35 68 86v111c-13 -33 -40 -49 -77 -49c-63 0 -89 46 -89 109v55c0 65 30 113 99 113zM136 771c-48 0 -67 -35 -67 -82v-55c0 -47 19 -82 67 -82
s67 35 67 82v55c0 47 -19 82 -67 82z" />
    <glyph glyph-name="asterisk" unicode="*" horiz-adv-x="394" 
d="M361 556l-148 -33l95 -118l-31 -23l-80 129l-80 -128l-32 22l96 118l-148 35l12 37l142 -53l-10 153h39l-9 -153l142 51z" />
    <glyph glyph-name="backslash" unicode="\" horiz-adv-x="371" 
d="M27 700h41l276 -700h-41z" />
    <glyph glyph-name="bullet" unicode="&#x2022;" horiz-adv-x="263" 
d="M131 422c40 0 72 -32 72 -72s-32 -72 -72 -72c-39 0 -71 32 -71 72s32 72 71 72z" />
    <glyph glyph-name="colon" unicode=":" horiz-adv-x="125" 
d="M40 469h45v-88h-45v88zM40 88h45v-88h-45v88z" />
    <glyph glyph-name="comma" unicode="," horiz-adv-x="134" 
d="M45 -76l20 76h-15v88h44v-84l-29 -80h-20z" />
    <glyph glyph-name="ellipsis" unicode="&#x2026;" horiz-adv-x="283" 
d="M40 88h45v-88h-45v88zM119 88h44v-88h-44v88zM199 88h44v-88h-44v88z" />
    <glyph glyph-name="exclam" unicode="!" horiz-adv-x="126" 
d="M46 155l-6 180v366h46v-366l-6 -180h-34zM41 87h44v-87h-44v87z" />
    <glyph glyph-name="exclamdown" unicode="&#xa1;" horiz-adv-x="126" 
d="M41 701h44v-88h-44v88zM40 0v326l6 220h34l6 -220v-326h-46z" />
    <glyph glyph-name="numbersign" unicode="#" horiz-adv-x="414" 
d="M380 483h-61l-24 -227h61l-3 -34h-61l-24 -222h-39l24 222h-118l-23 -222h-39l24 222h-66l3 34h66l24 227h-67l3 34h67l19 184h39l-19 -184h117l19 184h39l-19 -184h61zM256 256l24 227h-118l-23 -227h117z" />
    <glyph glyph-name="period" unicode="." horiz-adv-x="125" 
d="M40 88h45v-88h-45v88z" />
    <glyph glyph-name="periodcentered" unicode="&#xb7;" horiz-adv-x="125" 
d="M40 404h45v-88h-45v88z" />
    <glyph glyph-name="question" unicode="?" horiz-adv-x="363" 
d="M182 706c109 0 149 -77 149 -178c0 -157 -146 -194 -146 -335c0 -11 2 -25 5 -37h-42c-3 12 -5 25 -5 39c0 152 142 185 142 335c0 76 -25 134 -104 134c-78 0 -104 -61 -104 -135v-49h-44v46c0 101 41 180 149 180zM146 87h44v-87h-44v87z" />
    <glyph glyph-name="questiondown" unicode="&#xbf;" horiz-adv-x="363" 
d="M172 700h45v-87h-45v87zM173 544h41c4 -12 6 -25 6 -39c-1 -152 -143 -185 -143 -335c0 -76 25 -134 105 -134c78 0 104 61 104 135v49h44v-46c0 -101 -42 -180 -149 -180c-109 0 -150 77 -150 178c0 157 146 194 146 335c0 11 -1 25 -4 37z" />
    <glyph glyph-name="quotedbl" unicode="&#x22;" horiz-adv-x="206" 
d="M40 701h45l-6 -174h-34zM121 701h45l-6 -174h-33z" />
    <glyph glyph-name="quotesingle" unicode="'" horiz-adv-x="122" 
d="M39 701h44l-5 -174h-34z" />
    <glyph glyph-name="semicolon" unicode=";" horiz-adv-x="134" 
d="M50 469h44v-88h-44v88zM45 -76l20 76h-15v88h44v-84l-29 -80h-20z" />
    <glyph glyph-name="slash" unicode="/" horiz-adv-x="371" 
d="M303 700h41l-276 -700h-41z" />
    <glyph glyph-name="underscore" unicode="_" horiz-adv-x="513" 
d="M26 -10h455v-35h-455v35z" />
    <glyph glyph-name="braceleft" unicode="{" horiz-adv-x="256" 
d="M225 662h-22c-49 0 -58 -33 -61 -83l-6 -126c-2 -47 -10 -87 -65 -103c55 -15 63 -55 65 -103l6 -125c3 -51 12 -83 61 -83h22v-39h-37c-62 0 -84 42 -88 104l-7 137c-2 53 -8 80 -63 88v42c55 9 61 35 63 88l7 138c4 61 26 104 88 104h37v-39z" />
    <glyph glyph-name="braceright" unicode="}" horiz-adv-x="256" 
d="M31 701h37c63 0 84 -43 88 -104l7 -138c3 -53 8 -79 64 -88v-42c-56 -8 -61 -35 -64 -88l-7 -137c-4 -62 -25 -104 -88 -104h-37v39h23c48 0 57 32 60 83l7 125c2 48 9 88 65 103c-56 16 -63 56 -65 103l-7 126c-3 50 -12 83 -60 83h-23v39z" />
    <glyph glyph-name="bracketleft" unicode="[" horiz-adv-x="232" 
d="M89 39h110v-39h-156v701h156v-39h-110v-623z" />
    <glyph glyph-name="bracketright" unicode="]" horiz-adv-x="232" 
d="M34 39h110v623h-110v39h156v-701h-156v39z" />
    <glyph glyph-name="parenleft" unicode="(" horiz-adv-x="231" 
d="M200 662h-20c-73 0 -91 -45 -91 -116v-391c0 -72 17 -116 91 -116h20v-39h-22c-105 0 -135 57 -135 155v391c0 98 31 155 135 155h22v-39z" />
    <glyph glyph-name="parenright" unicode=")" horiz-adv-x="231" 
d="M31 701h22c104 0 136 -57 136 -155v-391c0 -98 -31 -155 -136 -155h-22v39h20c74 0 92 44 92 116v391c0 71 -19 116 -92 116h-20v39z" />
    <glyph glyph-name="emdash" unicode="&#x2014;" horiz-adv-x="670" 
d="M26 331v38h619v-38h-619z" />
    <glyph glyph-name="endash" unicode="&#x2013;" horiz-adv-x="417" 
d="M26 331v38h366v-38h-366z" />
    <glyph glyph-name="figuredash" unicode="&#x2012;" horiz-adv-x="453" 
d="M26 331v38h401v-38h-401z" />
    <glyph glyph-name="hyphen" unicode="-" horiz-adv-x="260" 
d="M38 329v42h184v-42h-184z" />
    <glyph glyph-name="uni00AD" unicode="&#xad;" horiz-adv-x="260" 
d="M38 329v42h184v-42h-184z" />
    <glyph glyph-name="guillemotleft" unicode="&#xab;" horiz-adv-x="285" 
d="M97 101l-66 250l66 245h42l-65 -245l65 -250h-42zM212 101l-65 250l65 245h42l-65 -245l65 -250h-42z" />
    <glyph glyph-name="guillemotright" unicode="&#xbb;" horiz-adv-x="285" 
d="M31 101l65 250l-65 245h42l66 -245l-66 -250h-42zM147 101l64 250l-64 245h42l65 -245l-65 -250h-42z" />
    <glyph glyph-name="guilsinglleft" unicode="&#x2039;" horiz-adv-x="171" 
d="M96 97l-65 253l65 248h44l-64 -248l64 -253h-44z" />
    <glyph glyph-name="guilsinglright" unicode="&#x203a;" horiz-adv-x="171" 
d="M31 98l64 253l-64 248h44l65 -248l-65 -253h-44z" />
    <glyph glyph-name="quotedblbase" unicode="&#x201e;" horiz-adv-x="217" 
d="M94 4l-29 -80h-20l20 76h-15v88h44v-84zM177 4l-28 -80h-21l21 76h-16v88h44v-84z" />
    <glyph glyph-name="quotedblleft" unicode="&#x201c;" horiz-adv-x="212" 
d="M40 620l29 80h20l-20 -76h16v-88h-45v84zM118 620l29 80h21l-21 -76h16v-88h-45v84z" />
    <glyph glyph-name="quotedblright" unicode="&#x201d;" horiz-adv-x="212" 
d="M90 616l-29 -80h-21l21 76h-16v88h45v-84zM168 616l-29 -80h-20l20 76h-16v88h45v-84z" />
    <glyph glyph-name="quoteleft" unicode="&#x2018;" horiz-adv-x="134" 
d="M40 620l29 80h20l-20 -76h16v-88h-45v84z" />
    <glyph glyph-name="quoteright" unicode="&#x2019;" horiz-adv-x="134" 
d="M94 616l-29 -80h-20l20 76h-15v88h44v-84z" />
    <glyph glyph-name="quotesinglbase" unicode="&#x201a;" horiz-adv-x="134" 
d="M94 4l-29 -80h-20l20 76h-15v88h44v-84z" />
    <glyph glyph-name="Abreve" unicode="&#x102;" horiz-adv-x="436" 
d="M284 821h30c-2 -55 -42 -88 -98 -88c-55 0 -95 32 -96 88h30c1 -40 31 -57 66 -57s66 17 68 57zM325 155h-218l-35 -155h-42l153 701h67l156 -701h-46zM215 648l-101 -453h204z" />
    <glyph glyph-name="uni00A0" unicode="&#xa0;" horiz-adv-x="155" 
 />
    <glyph glyph-name="Euro" unicode="&#x20ac;" horiz-adv-x="397" 
d="M66 420v109c0 100 42 177 148 177s148 -77 148 -177v-38h-44v41c0 74 -27 132 -103 132c-75 0 -103 -58 -103 -132v-112h193v-27h-193v-82h193v-26h-193v-117c0 -74 27 -131 103 -131s103 57 103 131v46h44v-43c0 -100 -42 -177 -148 -177s-148 77 -148 177v114h-40v26
h40v82h-40v27h40z" />
    <glyph glyph-name="cent" unicode="&#xa2;" horiz-adv-x="377" 
d="M208 705v-47c94 -7 132 -76 132 -170v-32h-44v34c0 76 -29 127 -106 127c-76 0 -105 -56 -105 -131v-270c0 -75 29 -132 105 -132c77 0 106 55 106 130v55h44v-52c0 -95 -38 -167 -132 -174v-48h-39v48c-93 8 -130 82 -130 175v265c0 93 37 167 130 175v47h39z" />
    <glyph glyph-name="currency" unicode="&#xa4;" horiz-adv-x="349" 
d="M312 467l-48 -47c16 -19 25 -44 25 -70c0 -27 -9 -51 -25 -70l48 -47l-20 -20l-47 46c-19 -15 -44 -23 -71 -23c-26 0 -50 8 -70 23l-47 -46l-20 20l47 46c-15 20 -24 44 -24 71s9 51 24 70l-47 47l20 20l48 -47c19 15 43 24 69 24c27 0 51 -9 71 -24l47 47zM174 434
c-46 0 -84 -37 -84 -84s38 -84 84 -84c47 0 85 37 85 84s-38 84 -85 84z" />
    <glyph glyph-name="dollar" unicode="$" horiz-adv-x="377" 
d="M209 761v-60c93 -8 130 -80 130 -173v-16h-44v18c0 75 -28 130 -104 130s-104 -55 -104 -129c0 -170 253 -166 253 -359c0 -93 -38 -165 -131 -173v-56h-39v56c-94 7 -132 79 -132 173v39h44v-41c0 -76 29 -130 106 -130s106 54 106 130c0 167 -253 164 -253 358
c0 98 39 164 129 173v60h39z" />
    <glyph glyph-name="sterling" unicode="&#xa3;" horiz-adv-x="386" 
d="M198 706c107 0 147 -80 147 -180v-43h-43v45c0 74 -26 136 -103 136c-79 0 -105 -58 -105 -134c0 -120 55 -165 79 -253h147v-37h-143c7 -58 -10 -116 -83 -198h253v-42h-311v41c56 43 111 114 99 199h-86v37h79c-26 86 -80 130 -80 251c0 101 41 178 150 178z" />
    <glyph glyph-name="uni20B9" unicode="&#x20b9;" horiz-adv-x="380" 
d="M345 663h-140c54 -24 76 -81 77 -138h63v-37h-63c-5 -91 -60 -156 -167 -156h-29l250 -332h-50l-251 333v36h70c91 0 130 48 132 119h-199v37h199c0 82 -44 138 -132 138h-67v37h307v-37z" />
    <glyph glyph-name="yen" unicode="&#xa5;" horiz-adv-x="431" 
d="M347 248h-109v-73h109v-26h-109v-149h-46v149h-108v26h108v73h-108v26h104l-160 426h49l140 -374l141 374h44l-161 -426h106v-26z" />
    <glyph glyph-name="approxequal" unicode="&#x2248;" horiz-adv-x="397" 
d="M124 479c60 1 107 -64 157 -62c27 1 44 23 63 54l24 -22c-26 -44 -51 -67 -87 -68c-57 -2 -104 63 -157 61c-30 0 -50 -21 -71 -53l-25 21c30 45 58 68 96 69zM124 318c60 1 107 -64 157 -62c27 1 44 23 63 54l24 -22c-26 -43 -51 -67 -87 -68c-57 -2 -104 62 -157 62
c-30 -1 -50 -21 -71 -54l-25 21c30 45 58 68 96 69z" />
    <glyph glyph-name="asciitilde" unicode="~" horiz-adv-x="397" 
d="M124 398c59 2 107 -63 156 -61c28 1 44 23 64 54l24 -23c-27 -43 -52 -66 -87 -68c-58 -2 -105 63 -158 62c-30 0 -50 -20 -71 -54l-24 21c29 46 58 69 96 69z" />
    <glyph glyph-name="divide" unicode="&#xf7;" horiz-adv-x="305" 
d="M130 499h44v-88h-44v88zM35 367h236v-34h-236v34zM130 289h44v-88h-44v88z" />
    <glyph glyph-name="equal" unicode="=" horiz-adv-x="305" 
d="M38 442h229v-34h-229v34zM38 320h229v-34h-229v34z" />
    <glyph glyph-name="greater" unicode="&#x3e;" horiz-adv-x="370" 
d="M40 199v36l250 115l-250 115v36l294 -134v-34z" />
    <glyph glyph-name="infinity" unicode="&#x221e;" horiz-adv-x="566" 
d="M392 481h14c75 0 124 -39 124 -115c0 -77 -49 -115 -124 -115h-14c-51 0 -91 16 -106 60c-17 -45 -58 -60 -109 -60h-13c-75 0 -125 38 -125 115c0 76 50 115 125 115h13c51 0 92 -16 109 -60c15 44 55 60 106 60zM181 448h-17c-59 0 -91 -29 -91 -82s32 -81 91 -82h17
c58 0 88 29 88 82s-30 82 -88 82zM404 448h-17c-60 0 -87 -30 -87 -82s27 -81 87 -82h17c57 0 92 28 92 82s-35 82 -92 82z" />
    <glyph glyph-name="less" unicode="&#x3c;" horiz-adv-x="370" 
d="M330 235v-36l-294 134v34l294 134v-36l-249 -115z" />
    <glyph glyph-name="logicalnot" unicode="&#xac;" horiz-adv-x="380" 
d="M311 333h-276v34h310v-168h-34v134z" />
    <glyph glyph-name="minus" unicode="&#x2212;" horiz-adv-x="388" 
d="M35 367h319v-34h-319v34z" />
    <glyph glyph-name="multiply" unicode="&#xd7;" horiz-adv-x="337" 
d="M297 244l-23 -24l-105 106l-106 -106l-24 24l106 105l-105 105l23 24l106 -105l105 105l23 -23l-105 -106z" />
    <glyph glyph-name="percent" unicode="%" horiz-adv-x="605" 
d="M132 702c68 0 95 -50 95 -113v-213c0 -63 -27 -113 -95 -113c-67 0 -94 50 -94 113v213c0 63 27 113 94 113zM424 701h30l-276 -701h-30zM132 673c-48 0 -63 -38 -63 -83v-216c0 -44 15 -82 63 -82c47 0 63 38 63 82v216c0 45 -16 83 -63 83zM473 436
c68 0 94 -51 94 -114v-210c0 -63 -26 -114 -94 -114s-95 51 -95 114v210c0 63 27 114 95 114zM473 406c-47 0 -63 -37 -63 -82v-214c0 -44 16 -83 63 -83c48 0 63 39 63 83v214c0 45 -15 82 -63 82z" />
    <glyph glyph-name="perthousand" unicode="&#x2030;" horiz-adv-x="852" 
d="M132 702c68 0 95 -50 95 -113v-213c0 -63 -27 -113 -95 -113c-67 0 -94 50 -94 113v213c0 63 27 113 94 113zM424 701h30l-276 -701h-30zM132 673c-48 0 -63 -38 -63 -83v-216c0 -44 15 -82 63 -82c47 0 63 38 63 82v216c0 45 -16 83 -63 83zM473 436
c68 0 94 -51 94 -114v-210c0 -63 -26 -114 -94 -114s-95 51 -95 114v210c0 63 27 114 95 114zM720 436c68 0 94 -51 94 -114v-210c0 -63 -26 -114 -94 -114s-95 51 -95 114v210c0 63 27 114 95 114zM473 406c-47 0 -63 -37 -63 -82v-214c0 -44 16 -83 63 -83
c48 0 63 39 63 83v214c0 45 -15 82 -63 82zM720 406c-47 0 -63 -37 -63 -82v-214c0 -44 16 -83 63 -83c48 0 63 39 63 83v214c0 45 -15 82 -63 82z" />
    <glyph glyph-name="plus" unicode="+" horiz-adv-x="388" 
d="M354 333h-143v-146h-34v146h-142v34h142v144h34v-144h143v-34z" />
    <glyph glyph-name="plusminus" unicode="&#xb1;" horiz-adv-x="388" 
d="M38 222h139v118h-139v35h139v136h34v-136h139v-35h-139v-118h139v-35h-312v35z" />
    <glyph glyph-name="uni00B5" unicode="&#xb5;" horiz-adv-x="399" 
d="M307 0v91c-17 -58 -58 -95 -116 -95c-54 0 -86 32 -98 76l1 -164h-46v592h46v-329c0 -76 29 -132 104 -132s105 56 105 132v329h46v-500h-42z" />
    <glyph glyph-name="ampersand" unicode="&#x26;" horiz-adv-x="403" 
d="M307 658h-99c-81 0 -122 -44 -122 -130v-28c0 -63 35 -111 96 -114h108v78h46v-78h38v-42h-38v-252c0 -35 0 -63 18 -92h-48c-11 20 -15 39 -15 67c-21 -49 -65 -73 -118 -73c-92 0 -133 66 -133 162v66c0 66 29 124 92 145c-63 18 -92 75 -92 142v17
c0 112 55 174 168 174h99v-42zM290 344h-102c-66 -4 -102 -51 -102 -121v-64c0 -73 31 -123 103 -123c58 0 100 36 101 98v210z" />
    <glyph glyph-name="asciicircum" unicode="^" horiz-adv-x="409" 
d="M204 657l-132 -266h-39l154 309h35l154 -309h-39z" />
    <glyph glyph-name="at" unicode="@" horiz-adv-x="688" 
d="M390 730c190 0 266 -115 266 -283c0 -151 -61 -303 -171 -304c-45 0 -67 29 -69 70c-20 -48 -56 -77 -108 -76c-81 1 -104 72 -95 153l10 99c9 83 48 145 126 144c48 -1 79 -25 91 -71l7 66h41l-30 -286c-3 -28 5 -60 38 -60c98 1 125 169 124 264
c0 152 -71 247 -232 247c-221 0 -314 -190 -314 -409c0 -186 85 -294 273 -294c66 0 131 15 187 58l-3 -42c-57 -39 -119 -53 -186 -53c-215 0 -311 127 -311 333c0 230 106 444 356 444zM360 492c-61 0 -90 -47 -97 -108l-9 -94c-6 -58 9 -113 72 -113c62 -1 90 52 96 113
l11 97c6 56 -13 105 -73 105z" />
    <glyph glyph-name="bar" unicode="|" horiz-adv-x="250" 
d="M108 724h38v-747h-38v747z" />
    <glyph glyph-name="brokenbar" unicode="&#xa6;" horiz-adv-x="251" 
d="M108 409v314h39v-314h-39zM108 -23v314h39v-314h-39z" />
    <glyph glyph-name="copyright" unicode="&#xa9;" horiz-adv-x="748" 
d="M374 700c197 0 341 -150 341 -350s-144 -350 -341 -350c-198 0 -341 150 -341 350s143 350 341 350zM374 669c-180 0 -309 -138 -309 -319s129 -319 309 -319s308 138 308 319s-128 319 -308 319zM370 569c73 0 104 -52 104 -123v-24h-32v26c0 51 -19 90 -72 90
c-52 0 -72 -39 -72 -90v-196c0 -51 20 -90 72 -90c53 0 72 39 72 90v37h32v-36c0 -70 -31 -123 -104 -123c-75 0 -106 53 -106 123v193c0 71 31 123 106 123z" />
    <glyph glyph-name="dagger" unicode="&#x2020;" horiz-adv-x="393" 
d="M216 700v-199h142v-37h-142v-529h-39v529h-142v37h142v199h39z" />
    <glyph glyph-name="daggerdbl" unicode="&#x2021;" horiz-adv-x="393" 
d="M216 700v-199h142v-37h-142v-291h142v-38h-142v-200h-39v200h-142v38h142v291h-142v37h142v199h39z" />
    <glyph glyph-name="degree" unicode="&#xb0;" horiz-adv-x="210" 
d="M105 708c41 0 74 -32 74 -73s-33 -73 -74 -73s-74 32 -74 73s33 73 74 73zM105 684c-28 0 -50 -21 -50 -49s22 -49 50 -49c27 0 50 21 50 49s-23 49 -50 49z" />
    <glyph glyph-name="paragraph" unicode="&#xb6;" horiz-adv-x="396" 
d="M310 665h-125v-727h-35v351c-92 4 -126 63 -126 166v79c0 101 31 165 139 166h182v-762h-35v727z" />
    <glyph glyph-name="registered" unicode="&#xae;" horiz-adv-x="748" 
d="M374 700c197 0 341 -150 341 -350s-144 -350 -341 -350c-198 0 -341 150 -341 350s143 350 341 350zM374 669c-180 0 -309 -138 -309 -319s129 -319 309 -319s308 138 308 319s-128 319 -308 319zM275 564h103c74 0 105 -41 105 -111v-13c0 -51 -17 -87 -64 -101
c46 -14 64 -48 64 -99v-46c0 -19 1 -43 12 -58h-35c-9 16 -11 32 -11 59v46c0 65 -37 81 -92 81h-48v-186h-34v428zM309 354h57c55 0 83 20 83 80v15c0 53 -19 83 -73 83h-67v-178z" />
    <glyph glyph-name="section" unicode="&#xa7;" horiz-adv-x="378" 
d="M191 706c85 -1 146 -50 146 -128v-19h-44v13c0 59 -45 94 -101 95c-55 0 -105 -26 -107 -87c-2 -120 254 -93 254 -264c0 -64 -42 -108 -97 -133c53 -26 99 -59 98 -129c-2 -75 -70 -121 -150 -121c-87 0 -151 46 -151 128v33h43v-28c0 -62 50 -94 107 -94
c51 0 103 28 105 84c3 125 -255 92 -254 264c0 65 49 110 106 130c-56 28 -108 61 -107 132c2 80 68 124 152 124zM189 430c-53 -9 -105 -49 -105 -108c0 -68 64 -95 118 -119c50 15 93 53 93 111c0 62 -52 91 -106 116z" />
    <glyph glyph-name="trademark" unicode="&#x2122;" horiz-adv-x="580" 
d="M136 344h-32v327h-90v29h211v-29h-89v-327zM515 651l-91 -303h-31l-92 303v-307h-29v356h44l93 -304l92 304h44v-356h-30v307z" />
    <glyph glyph-name="uni2117" unicode="&#x2117;" horiz-adv-x="748" 
d="M374 701c198 0 341 -151 341 -350c0 -200 -143 -351 -341 -351s-341 151 -341 351c0 199 143 350 341 350zM374 669c-180 0 -309 -137 -309 -318s129 -320 309 -320s308 139 308 320s-128 318 -308 318zM292 556h103c76 0 104 -46 104 -116v-35c0 -76 -34 -113 -112 -113
h-61v-164h-34v428zM326 323h59c57 0 80 26 80 85v29c0 52 -17 87 -72 87h-67v-201z" />
    <glyph glyph-name="acute" unicode="&#xb4;" horiz-adv-x="197" 
d="M107 848h47l-84 -95h-35z" />
    <glyph glyph-name="breve" unicode="&#x2d8;" horiz-adv-x="254" 
d="M194 821h30c-1 -55 -42 -88 -97 -88c-56 0 -96 32 -97 88h30c2 -40 32 -57 67 -57s65 17 67 57z" />
    <glyph glyph-name="caron" unicode="&#x2c7;" horiz-adv-x="250" 
d="M21 848h43l61 -64l61 64h43l-84 -90h-40z" />
    <glyph glyph-name="cedilla" unicode="&#xb8;" horiz-adv-x="247" 
d="M137 5v-44c42 -1 75 -11 75 -51c0 -47 -44 -61 -89 -60c-43 0 -88 15 -88 59v6h33v-5c0 -29 31 -39 55 -40c26 0 55 11 55 41c0 32 -28 38 -57 38h-7v56h23z" />
    <glyph glyph-name="circumflex" unicode="&#x2c6;" horiz-adv-x="250" 
d="M125 821l-61 -63h-43l84 90h40l84 -90h-43z" />
    <glyph glyph-name="dieresis" unicode="&#xa8;" horiz-adv-x="190" 
d="M68 745v85h54v-85h-54z" />
    <glyph glyph-name="dotaccent" unicode="&#x2d9;" horiz-adv-x="148" 
d="M53 833h41v-84h-41v84z" />
    <glyph glyph-name="grave" unicode="`" horiz-adv-x="197" 
d="M41 848h50l71 -95h-36z" />
    <glyph glyph-name="hungarumlaut" unicode="&#x2dd;" horiz-adv-x="235" 
d="M81 848h45l-77 -95h-32zM166 848h45l-77 -95h-32z" />
    <glyph glyph-name="macron" unicode="&#xaf;" horiz-adv-x="253" 
d="M29 781h194v-34h-194v34z" />
    <glyph glyph-name="ogonek" unicode="&#x2db;" horiz-adv-x="205" 
d="M99 1h25c-26 -20 -46 -56 -45 -81c1 -22 19 -32 40 -32c18 0 32 5 43 13v-28c-17 -9 -35 -13 -56 -13c-35 1 -62 16 -63 51c-2 32 24 68 56 90z" />
    <glyph glyph-name="ring" unicode="&#x2da;" horiz-adv-x="218" 
d="M109 880c37 0 67 -29 67 -66c0 -38 -30 -67 -67 -67s-67 29 -67 67c0 37 30 66 67 66zM109 856c-24 0 -43 -18 -43 -42c0 -25 19 -42 43 -42c23 0 43 17 43 42c0 24 -20 42 -43 42z" />
    <glyph glyph-name="tilde" unicode="&#x2dc;" horiz-adv-x="262" 
d="M215 815l25 -16c-13 -30 -32 -47 -58 -48c-37 -1 -62 34 -93 33c-19 0 -32 -11 -42 -30l-25 17c14 30 35 47 63 47c38 1 63 -34 93 -33c17 0 28 13 37 30z" />
    <glyph glyph-name="commaaccentcomb" unicode="&#xf6c3;" horiz-adv-x="0" 
d="M103 -113l-27 -63h-18l19 59h-13v83h39v-79z" />
    <glyph glyph-name="uni02BC" unicode="&#x2bc;" horiz-adv-x="134" 
d="M94 616l-29 -80h-20l20 76h-15v88h44v-84z" />
    <glyph glyph-name="Edotaaccent" horiz-adv-x="216" 
 />
    <glyph glyph-name="edotaaccent" horiz-adv-x="216" 
 />
    <glyph glyph-name="lcute" horiz-adv-x="216" 
 />
    <glyph glyph-name="A" unicode="A" horiz-adv-x="436" 
d="M325 155h-218l-35 -155h-42l153 701h67l156 -701h-46zM215 648l-101 -453h204z" />
    <glyph glyph-name="Aacute" unicode="&#xc1;" horiz-adv-x="436" 
d="M242 833h48l-84 -95h-35zM325 155h-218l-35 -155h-42l153 701h67l156 -701h-46zM215 648l-101 -453h204z" />
    </font>
</defs>
</svg>
